<?xml version="1.0" standalone="no"?>
<!DOCTYPE svg PUBLIC "-//W3C//DTD SVG 1.1//EN" "http://www.w3.org/Graphics/SVG/1.1/DTD/svg11.dtd" >
<svg xmlns="http://www.w3.org/2000/svg">
<metadata>
<json>
<![CDATA[
{
	"fontFamily": "Teams2",
	"majorVersion": 1,
	"minorVersion": 0,
	"version": "Version 1.0",
	"fontId": "Teams2",
	"psName": "Teams2",
	"subFamily": "Regular",
	"fullName": "Teams2",
	"description": "Font generated by IcoMoon."
}
]]>
</json>
</metadata>
<defs>
<font id="Teams2" horiz-adv-x="1024">
<font-face units-per-em="1024" ascent="960" descent="-64" />
<missing-glyph horiz-adv-x="1024" />
<glyph unicode="&#x20;" horiz-adv-x="512" d="" />
<glyph unicode="&#xe900;" glyph-name="pictures, images, photos" data-tags="pictures, images, photos" d="M725.334 693.334c0-29.44 23.894-53.334 53.334-53.334s53.334 23.894 53.334 53.334-23.896 53.332-53.336 53.332-53.332-23.892-53.332-53.332zM192 405.334v-58.666c0-26.454 21.546-48.002 48-48.002h592l-203.968 200.534c-17.066 17.066-44.374 17.066-61.418 0l-43.114-42.454-108.822 106.454c-17.066 17.066-47.766 17.066-64.618 0l-158.060-157.866zM0 42.666c0-47.146 38.186-85.334 85.334-85.334h853.334c47.146 0 85.334 38.186 85.334 85.334l-0.002 810.668c0 47.146-38.186 85.334-85.334 85.334l-853.332-0.002c-47.148 0-85.334-38.186-85.334-85.332v-810.668zM153.6 832h716.8c26.026 0 46.934-20.906 46.934-46.934v-524.8c0-26.026-20.906-46.934-46.934-46.934l-716.8 0.002c-26.026 0-46.934 20.906-46.934 46.932v524.8c0 26.028 20.908 46.934 46.934 46.934z" />
<glyph unicode="&#xe901;" glyph-name="camera2, photos2, images2, pictures2" data-tags="camera, photos, images, pictures" d="M576 373.334c0 29.44 23.894 53.334 53.334 53.334s53.334-23.894 53.334-53.334-23.894-53.334-53.334-53.334-53.334 23.894-53.334 53.334zM629.334 512c-76.586 0-138.666-62.080-138.666-138.666s62.080-138.666 138.666-138.666 138.666 62.080 138.666 138.666-62.080 138.666-138.666 138.666zM0 128c0-47.146 38.186-85.334 85.334-85.334h853.334c47.146 0 85.334 38.186 85.334 85.334l-0.002 490.666c0 47.146-38.186 85.334-85.334 85.334h-80l-109.226 109.226c-12.586 12.588-29.014 18.774-45.44 18.774h-149.12c-16.426 0-33.066-6.186-45.44-18.774l-108.8-109.226h-80.64v48c0 20.694-16.64 37.334-37.334 37.334h-138.666c-20.694 0-37.334-16.64-37.334-37.334v-48h-21.332c-47.146 0-85.334-38.186-85.334-85.334v-490.666zM277.334 512h-128c-23.466 0-42.666 19.2-42.666 42.666s19.2 42.666 42.666 42.666h128c23.466 0 42.666-19.2 42.666-42.666s-19.2-42.666-42.666-42.666zM629.334 597.334c123.732 0 224-100.268 224-224s-100.268-224-224-224-224 100.266-224 224 100.266 224 224 224z" />
<glyph unicode="&#xe902;" glyph-name="video, camera, movie" data-tags="video, camera, movie" d="M960 768h-28.384c-16.8 0-32.928-6.624-44.928-18.432l-86.688-85.504v39.936c0 53.024-43.008 96-96 96h-608c-52.928 0-96-43.040-96-96v-512c0-52.992 42.976-96 96-96h608c52.992 0 96 43.008 96 96v39.072l86.688-85.504c12-11.808 28.128-18.432 44.928-18.432h28.384c35.328 0 64 28.64 64 64v512.864c0 35.36-28.672 64-64 64zM96 160c-17.664 0-32 14.368-32 32v512c0 17.696 14.304 32 32 32h608c17.632 0 32-14.336 32-32v-512c0-17.632-14.368-32-32-32h-608zM960 191.136h-32l-128 128v0.864l-32 32v192l160 160h32v-512.864z" />
<glyph unicode="&#xe903;" glyph-name="photo2, image2, picture1" data-tags="photo, image, picture" d="M864 960h-704c-70.688 0-128-57.312-128-128v-768c0-70.688 57.312-128 128-128h704c70.688 0 128 57.312 128 128v768c0 70.688-57.312 128-128 128zM928 64c0-35.264-28.736-64-64-64h-704c-35.296 0-64 28.736-64 64v768c0 35.296 28.704 64 64 64h704c35.264 0 64-28.704 64-64v-768zM832 832h-640c-17.696 0-32-14.304-32-32v-576c0-17.696 14.304-32 32-32h640c17.696 0 32 14.304 32 32v576c0 17.696-14.304 32-32 32zM832 800v-443.808l-104 112.96c-6.112 6.912-14.816 10.848-24 10.848s-17.952-3.936-24-10.848l-83.328-94.4-252.672 286.4c-6.080 6.912-14.816 10.848-24 10.848s-17.92-3.936-24-10.848l-104-119.936v258.784h640zM192 492.8l128 147.2 276.672-313.632 88.384-102.368h-493.056v268.8zM727.68 224l-109.696 126.56 86.016 97.44 128-140.128v-83.872h-104.32zM640 544c52.992 0 96 42.976 96 96s-43.008 96-96 96c-53.056 0-96-42.976-96-96s42.944-96 96-96zM640 704c35.264 0 64-28.704 64-64s-28.736-64-64-64c-35.328 0-64 28.704-64 64s28.672 64 64 64z" />
<glyph unicode="&#xe904;" glyph-name="camera6, photo3, image4" data-tags="camera, photo, image" d="M512 639.968c-141.408 0-256-114.592-256-256 0-141.376 114.592-256 256-256 141.376 0 256 114.624 256 256s-114.624 256-256 256zM657.76 259.008c-68.992-80.512-190.176-89.824-270.688-20.8-80.544 68.992-89.824 190.208-20.8 270.688 68.96 80.544 190.176 89.824 270.688 20.8 80.48-68.96 89.792-190.208 20.8-270.688zM512 511.968c8.832 0 16-7.168 16-16s-7.168-16-16-16c-53.024 0-95.968-42.976-96-95.968v-0.064c0-8.8-7.168-16-16-16s-16 7.2-16 16v0.064c0.032 70.656 57.312 127.968 128 127.968zM943.744 670.656l-138.688 23.136-43.936 109.888c-14.688 36.64-49.696 60.32-89.12 60.32h-320c-39.424 0-74.432-23.68-89.152-60.352l-43.904-109.856-138.656-23.136c-46.528-7.712-80.288-47.52-80.288-94.656v-480c0-52.928 43.072-96 96-96h832c52.928 0 96 43.072 96 96v480c0 47.136-33.76 86.944-80.256 94.656zM960 96c0-17.696-14.304-32-32-32h-832c-17.696 0-32 14.304-32 32v480c0 15.648 11.328 28.992 26.752 31.552l174.208 29.024 57.312 143.296c4.896 12.128 16.64 20.128 29.728 20.128h320c13.056 0 24.8-7.968 29.696-20.128l57.312-143.296 174.24-29.024c15.424-2.56 26.752-15.904 26.752-31.552v-480z" />
<glyph unicode="&#xe905;" glyph-name="display, screen, pc, computer, desktop" data-tags="display, screen, pc, computer, desktop" d="M864 800.128l-704-0.128c-17.696 0-32-14.176-32-31.872v-448c0-17.696 14.304-32 32-32h704c17.696 0 32 14.304 32 32v448c0 17.696-14.304 32-32 32zM864 320h-704v448.128h704v-448.128zM928 928h-832c-53.024 0-96-42.944-96-96v-640c0-52.928 42.816-95.808 95.68-95.936h320.32v-38.944l-199.744-25.952c-14.272-3.552-24.256-16.352-24.256-31.040 0-17.696 14.304-32 32-32h576c17.696 0 32 14.304 32 32 0 14.688-9.984 27.488-24.256 31.072l-199.744 25.92v38.944h320.32c52.864 0.128 95.68 43.008 95.68 95.936v640c0 53.056-43.008 96-96 96zM960 192c0-17.632-14.368-32-32-32h-832c-17.664 0-32 14.368-32 32v640c0 17.664 14.336 32 32 32h832c17.632 0 32-14.336 32-32v-640z" />
<glyph unicode="&#xe906;" glyph-name="video2, camera3, movie2" data-tags="video, camera, movie" d="M960 768h-28.384c-16.8 0-32.928-6.624-44.928-18.432l-86.688-85.504v39.936c0 53.024-43.008 96-96 96h-608c-52.928 0-96-43.040-96-96v-512c0-52.992 42.976-96 96-96h608c52.992 0 96 43.008 96 96v39.072l86.688-85.504c12-11.808 28.128-18.432 44.928-18.432h28.384c35.328 0 64 28.64 64 64v512.864c0 35.36-28.672 64-64 64zM96 160c-17.664 0-32 14.368-32 32v512c0 17.696 14.304 32 32 32h608c17.632 0 32-14.336 32-32v-512c0-17.632-14.368-32-32-32h-608zM960 191.136h-32l-128 128v0.864l-32 32v192l160 160h32v-512.864z" />
<glyph unicode="&#xe907;" glyph-name="t-shirt, team, group" data-tags="t-shirt, team, group" d="M1000 753.984l-160 128c-11.36 9.088-25.504 14.016-40 14.016h-576c-14.528 0-28.64-4.928-40-14.016l-160-128c-20.928-16.768-29.184-44.8-20.704-70.24l64-192c6.304-18.912 21.088-33.824 39.968-40.288 6.72-2.304 13.76-3.456 20.736-3.456 11.136 0 22.176 2.912 32 8.576v-392.576c0-35.328 28.672-64 64-64h576c35.328 0 64 28.672 64 64v392.576c9.824-5.664 20.864-8.576 32-8.576 7.008 0 14.016 1.152 20.736 3.456 18.88 6.464 33.632 21.376 39.936 40.288l64 192c8.512 25.44 0.256 53.472-20.672 70.24zM632.128 832c-17.696-37.152-64.576-64-120.128-64s-102.464 26.848-120.128 64h240.256zM896 512l-96 64v-512h-576v512l-96-64-64 192 160 128h133.664c17.824-55.104 79.872-96 154.336-96 74.432 0 136.512 40.896 154.304 96h133.696l160-128-64-192z" />
<glyph unicode="&#xe908;" glyph-name="pictures1, images1, photos1, polaroid" data-tags="pictures, images, photos, polaroid" horiz-adv-x="1040" d="M851.328 13.216l-83.968 23.040-0.192 232.256 80.32-22.592 115.808 432.288-586.624 157.184-38.656-144.192h-66.176l59.616 222.464 710.176-190.272-190.304-710.176zM737.248-64h-737.248v735.264h737.248v-735.264zM673.312 607.328h-609.376v-447.52h609.376v447.52zM251.168 288.224l73.056 118.144 73.056-73.632 100.448 151.264 105.056-260.288h-465.792l59.36 118.72 54.816-54.208zM207.488 413.248c-26.496 0-47.968 21.44-47.968 47.936s21.472 47.936 47.968 47.936 47.936-21.44 47.936-47.936-21.44-47.936-47.936-47.936z" />
<glyph unicode="&#xe909;" glyph-name="film, photo" data-tags="film, photo" d="M768 416c-35.36 0-64-28.64-64-64v-128h-160v448h352v-256h-128zM608 640h-32v-64h32v64zM608 320h-32v-64h32v64zM672 640h-32v-64h32v64zM672 320h-32v-64h32v64zM736 640h-32v-64h32v64zM800 640h-32v-64h32v64zM864 640h-32v-64h32v64zM128 768h416v-64h-416v64zM512 672v-448h-352v448h352zM544 128h-416v64h416v-64z" />
<glyph unicode="&#xe90a;" glyph-name="film1, video3, movie3" data-tags="film, video, movie" d="M128 768v-704h704v704h-704zM256 128h-64v64h64v-64zM256 224h-64v64h64v-64zM256 320h-64v64h64v-64zM256 448h-64v64h64v-64zM256 544h-64v64h64v-64zM256 640h-64v64h64v-64zM640 128h-320v256h320v-256zM640 448h-320v256h320v-256zM768 128h-64v64h64v-64zM768 224h-64v64h64v-64zM768 320h-64v64h64v-64zM768 448h-64v64h64v-64zM768 544h-64v64h64v-64zM768 640h-64v64h64v-64z" />
<glyph unicode="&#xe90b;" glyph-name="camera7, movie5, video5, record, film4" data-tags="camera, movie, video, record, film" d="M864 414.496l-160 64.096v128.256l160 64.128c17.696 0 32-14.368 32-32.064v-192.384c0-17.696-14.304-32.032-32-32.032zM560 638.944c-79.52 0-144 64.608-144 144.288s64.48 144.288 144 144.288 144-64.608 144-144.288c0-79.712-64.48-144.288-144-144.288zM272 638.944c-79.52 0-144 64.608-144 144.288s64.48 144.288 144 144.288 144-64.608 144-144.288c0-79.712-64.48-144.288-144-144.288zM672 638.944v-288.576h-178.624c-1.664-26.624-13.312-49.568-30.624-62.56h18.048l127.648-287.872h-31.808l-42.56 96h-85.12v-159.936h-31.904v159.936h-86.464l-43.232-96h-31.84l129.664 287.872h12.064c-17.312 12.992-28.96 35.936-30.624 62.56h-206.624v288.576h512zM417.024 277.888c-1.312 0.32-2.528 0.992-3.808 1.44l-68.224-151.424h72.032v149.984zM448.928 280.192v-152.32h70.944l-68.032 153.44c-0.928-0.448-1.888-0.736-2.912-1.12z" />
<glyph unicode="&#xe90c;" glyph-name="navigation, nautical-vessel, vessel, wheel" data-tags="navigation, nautical vessel, vessel, wheel" horiz-adv-x="1056" d="M1012 513.984c-16.256 0-55.392-18.016-83.296-32h-63.52c-3.84 81.376-36.512 155.040-88.16 211.2l41.984 42.016c29.824 9.76 73.664 25.568 85.728 37.632 18.752 18.752 18.752 49.152 0 67.904-18.752 18.72-49.12 18.72-67.872 0-11.488-11.488-26.432-51.968-36.256-81.536l-44.896-44.864c-56.416 51.36-130.24 83.584-211.712 86.976v59.424c14.144 28 33.984 70.208 33.984 87.264 0 26.496-21.504 48-48 48s-48-21.504-48-48c0-16.256 18.016-55.392 32-83.296v-63.52c-81.376-3.84-155.072-36.48-211.232-88.16l-41.984 42.016c-9.76 29.824-25.6 73.696-37.664 85.76-18.72 18.72-49.12 18.72-67.872 0-18.752-18.752-18.752-49.152 0-67.904 11.488-11.52 51.936-26.432 81.504-36.256l44.896-44.896c-50.912-55.968-83.008-129.056-86.816-209.728h-63.52c-27.872 13.984-67.008 32-83.296 32-26.528 0-48-21.504-48-48s21.472-48 48-48c17.056 0 59.264 19.84 87.264 33.984h59.456c3.36-81.472 35.616-155.296 86.944-211.712l-44.864-44.896c-29.6-9.824-70.016-24.736-81.536-36.256-18.752-18.752-18.752-49.152 0-67.872 18.752-18.752 49.152-18.752 67.872 0 12.064 12.032 27.872 55.872 37.664 85.696l42.016 42.016c56.16-51.648 129.824-84.32 211.2-88.16v-63.52c-13.984-27.872-32-67.040-32-83.296 0-26.496 21.504-48 48-48s48 21.504 48 48c0 17.056-19.84 59.264-33.984 87.264v59.456c81.472 3.328 155.296 35.584 211.712 86.912l44.896-44.864c9.824-29.568 24.736-70.016 36.256-81.504 18.752-18.752 49.12-18.752 67.872 0 18.752 18.72 18.752 49.12 0 67.872-12.064 12.064-55.904 27.872-85.728 37.664l-41.984 41.984c52.096 56.64 84.864 131.040 88.256 213.216h59.456c28-14.176 70.176-33.984 87.264-33.984 26.496 0 48 21.504 48 48s-21.536 47.968-48.032 47.968zM326.88 646.464l113.664-113.664c-10.944-14.624-18.208-31.904-20.96-50.784h-160.768c3.68 63.008 28.672 120.16 68.064 164.448zM258.688 452h160.704c2.496-19.68 9.856-37.696 21.184-52.8l-113.696-113.664c-39.776 44.736-64.896 102.656-68.192 166.464zM513.984 194.816c-63.744 3.712-121.44 29.248-165.952 69.44l113.6 113.6c14.944-11.584 32.736-19.392 52.352-22.208v-160.832zM513.984 576.384c-19.616-2.816-37.408-10.656-52.352-22.24l-113.6 113.6c44.512 40.16 102.208 65.728 165.952 69.44v-160.8zM801.184 481.984h-160.8c-2.816 19.584-10.624 37.408-22.208 52.352l113.6 113.6c40.16-44.48 65.696-102.208 69.408-165.952zM710.464 669.12l-113.664-113.696c-15.136 11.328-33.12 18.688-52.8 21.184v160.704c63.808-3.296 121.728-28.416 166.464-68.192zM544 194.72v160.672c19.68 2.496 37.696 9.856 52.8 21.152l113.664-113.664c-44.736-39.776-102.656-64.896-166.464-68.16zM731.744 284.064l-113.6 113.6c12 15.424 19.872 33.984 22.432 54.336h160.672c-3.232-64.544-28.896-123.008-69.504-167.936z" />
<glyph unicode="&#xe90d;" glyph-name="tools, options, repair" data-tags="tools, options, repair" d="M889.056 706.048c30.688-74.016 16.064-162.368-44.128-222.56-66.272-66.272-166.432-76.64-244.288-32.704l-56.288-61.472 40.16-40.32 24 24c12.256 12.288 32.16 12.288 44.416 0l194.624-196.608c12.288-12.256 12.288-32.16 0-44.416l-88.832-88.832c-12.256-12.288-32.16-12.288-44.416 0l-194.624 196.608c-12.288 12.256-12.288 32.16 0 44.416l21.92 21.92-38.272 38.368-269.152-294.048c-24.544-24.544-64.32-24.544-88.832 0l-22.208 22.208c-24.544 24.544-24.544 64.32 0 88.832l306.624 256.8-203.648 204.192-64.32 0.032-74.432 119.68 59.904 60 122.4-74.912 0.8-62.976 206.016-206.816 59.936 50.176c-58.592 79.872-52.48 192.384 19.712 264.576 59.904 59.904 147.776 74.784 221.6 44.672l-131.968-130.144 111.072-111.072 132.224 130.4zM196.8 130.112c-12.256 12.256-32.128 12.256-44.416 0-12.288-12.288-12.288-32.16 0-44.448 12.288-12.256 32.16-12.256 44.416 0 12.288 12.32 12.288 32.192 0 44.448z" />
<glyph unicode="&#xe90e;" glyph-name="list, menu, dropdown, options1" data-tags="list, menu, dropdown, options" d="M256 704v-128h512v128h-512zM256 384h512v128h-512v-128zM256 192h512v128h-512v-128z" />
<glyph unicode="&#xe90f;" glyph-name="cog, gear, settings, options2" data-tags="cog, gear, settings, options" d="M831.84 349.824h-42.368c-6.88-24.928-16.736-48.576-29.376-70.496l39.168-39.136c25.056-25.056 25.056-65.696 0-90.752l-22.688-22.688c-25.056-25.056-65.696-25.056-90.752 0l-39.424 39.392c-21.856-12.448-45.408-22.144-70.208-28.896v-41.088c0-35.424-28.704-64.16-64.16-64.16h-32.064c-35.424 0-64.192 28.704-64.192 64.16v41.088c-24.768 6.752-48.352 16.48-70.208 28.896l-39.392-39.392c-25.024-25.056-65.664-25.056-90.72 0l-22.72 22.688c-25.056 25.056-25.056 65.696 0 90.752l39.168 39.136c-12.64 21.952-22.496 45.568-29.408 70.496h-42.336c-35.456 0-64.16 28.704-64.16 64.128v32.096c0 35.424 28.704 64.16 64.16 64.16h41.856c6.624 24.672 16.096 48.16 28.384 69.952l-37.664 37.632c-25.056 25.056-25.056 65.696 0 90.752l22.688 22.656c25.056 25.056 65.696 25.056 90.72 0l36.896-36.896c22.592 13.152 46.976 23.392 72.704 30.4v43.136c0.032 35.456 28.8 64.16 64.224 64.16h32.064c35.424 0 64.16-28.704 64.16-64.16v-43.104c25.792-7.040 50.144-17.28 72.704-30.432l36.896 36.896c25.056 25.056 65.696 25.056 90.752 0l22.688-22.656c25.056-25.056 25.056-65.696 0-90.752l-37.632-37.632c12.288-21.792 21.76-45.28 28.416-69.984h41.856c35.424 0 64.16-28.736 64.16-64.16v-32.096c-0.032-35.392-28.736-64.096-64.192-64.096zM496 605.44c-97.44 0-176.448-79.008-176.448-176.448s79.008-176.448 176.448-176.448 176.448 79.008 176.448 176.448-79.008 176.448-176.448 176.448zM496 350.816c-44.288 0-80.224 35.872-80.224 80.192 0 44.288 35.936 80.192 80.224 80.192s80.192-35.904 80.192-80.192c0-44.32-35.904-80.192-80.192-80.192z" />
<glyph unicode="&#xe910;" glyph-name="desktop1, screen1, display1, computer1" data-tags="desktop, screen, display, computer" horiz-adv-x="1248" d="M48 160h560v-48c0-8.832 7.168-16 16-16s16 7.168 16 16v48h560c26.464 0 48 21.536 48 48v704c0 26.464-21.536 48-48 48h-1152c-26.464 0-48-21.536-48-48v-704c0-26.464 21.536-48 48-48zM32 912c0 8.832 7.168 16 16 16h1152c8.832 0 16-7.168 16-16v-704c0-8.832-7.168-16-16-16h-1152c-8.832 0-16 7.168-16 16v704zM112 256h1024c8.832 0 16 7.168 16 16v576c0 8.832-7.168 16-16 16h-1024c-8.832 0-16-7.168-16-16v-576c0-8.832 7.168-16 16-16zM128 832h992v-544h-992v544zM448 64c-36.48 0-64-27.52-64-64v-48c0-8.832 7.168-16 16-16h448c8.832 0 16 7.168 16 16v45.6c0 37.216-28.096 66.4-64 66.4h-352zM832-2.4v-29.6h-416v32c0 18.848 13.152 32 32 32h352c18.24 0 32-14.784 32-34.4z" />
<glyph unicode="&#xe911;" glyph-name="video4, movie4, film2" data-tags="video, movie, film" horiz-adv-x="1184" d="M240 960h-192c-27.808 0-48-20.192-48-48v-928c0-27.808 20.192-48 48-48h1088c27.808 0 48 20.192 48 48v928c0 27.808-20.192 48-48 48h-896zM32-16v928c0 10.016 5.984 16 16 16h176v-960h-176c-10.016 0-16 5.984-16 16zM256-32v960h672v-960h-672zM1152 912v-928c0-10.016-5.984-16-16-16h-176v960h176c10.016 0 16-5.984 16-16zM472.864 637.312c-4.896 3.264-11.232 3.584-16.448 0.8-5.152-2.784-8.416-8.192-8.416-14.112v-384c0-5.92 3.264-11.328 8.448-14.112 2.368-1.248 4.96-1.888 7.552-1.888 3.104 0 6.176 0.896 8.864 2.688l288 192c4.448 2.976 7.136 7.968 7.136 13.312s-2.688 10.336-7.136 13.312l-288 192zM480 269.888v324.224l243.168-162.112-243.168-162.112zM160 704h-64c-8.832 0-16-7.168-16-16s7.168-16 16-16h64c8.832 0 16 7.168 16 16s-7.168 16-16 16zM96 800h64c8.832 0 16 7.168 16 16s-7.168 16-16 16h-64c-8.832 0-16-7.168-16-16s7.168-16 16-16zM160 576h-64c-8.832 0-16-7.168-16-16s7.168-16 16-16h64c8.832 0 16 7.168 16 16s-7.168 16-16 16zM160 448h-64c-8.832 0-16-7.168-16-16s7.168-16 16-16h64c8.832 0 16 7.168 16 16s-7.168 16-16 16zM160 320h-64c-8.832 0-16-7.168-16-16s7.168-16 16-16h64c8.832 0 16 7.168 16 16s-7.168 16-16 16zM160 192h-64c-8.832 0-16-7.168-16-16s7.168-16 16-16h64c8.832 0 16 7.168 16 16s-7.168 16-16 16zM160 64h-64c-8.832 0-16-7.168-16-16s7.168-16 16-16h64c8.832 0 16 7.168 16 16s-7.168 16-16 16zM1024 672h64c8.832 0 16 7.168 16 16s-7.168 16-16 16h-64c-8.832 0-16-7.168-16-16s7.168-16 16-16zM1024 800h64c8.832 0 16 7.168 16 16s-7.168 16-16 16h-64c-8.832 0-16-7.168-16-16s7.168-16 16-16zM1024 544h64c8.832 0 16 7.168 16 16s-7.168 16-16 16h-64c-8.832 0-16-7.168-16-16s7.168-16 16-16zM1024 416h64c8.832 0 16 7.168 16 16s-7.168 16-16 16h-64c-8.832 0-16-7.168-16-16s7.168-16 16-16zM1024 288h64c8.832 0 16 7.168 16 16s-7.168 16-16 16h-64c-8.832 0-16-7.168-16-16s7.168-16 16-16zM1024 160h64c8.832 0 16 7.168 16 16s-7.168 16-16 16h-64c-8.832 0-16-7.168-16-16s7.168-16 16-16zM1088 64h-64c-8.832 0-16-7.168-16-16s7.168-16 16-16h64c8.832 0 16 7.168 16 16s-7.168 16-16 16z" />
<glyph unicode="&#xe912;" glyph-name="trophy1, cup, winner, tournament, race, award1" data-tags="trophy, cup, winner, tournament, race, award" horiz-adv-x="1088" d="M816 928c8.832 0 16 7.168 16 16s-7.168 16-16 16h-544c-8.832 0-16-7.168-16-16s7.168-16 16-16h544zM816 896h-608c-105.056 0-154.016-37.312-176.608-68.608-27.648-38.4-32.832-89.696-14.592-144.448 28.224-84.672 123.072-186.4 181.376-231.584 2.944-2.272 6.4-3.36 9.824-3.36 4.768 0 9.504 2.112 12.672 6.208 5.408 6.976 4.128 17.024-2.848 22.464-53.568 41.472-144.8 138.944-170.624 216.416-14.944 44.704-11.328 85.76 10.176 115.584 26.080 36.192 78.144 55.328 150.624 55.328h48v-304c0-215.232 213.536-339.232 257.152-362.304-0.672-1.792-1.152-3.68-1.152-5.696v-80c0-8.832 7.168-16 16-16s16 7.168 16 16v80c0 1.856-0.48 3.584-1.056 5.248 48.448 22.784 289.056 146.752 289.056 362.752v304h48c72.48 0 124.544-19.136 150.624-55.328 21.504-29.824 25.12-70.88 10.176-115.616-20.16-60.512-120.608-177.696-170.624-216.416-6.976-5.408-8.256-15.456-2.848-22.464 3.168-4.064 7.904-6.176 12.672-6.176 3.424 0 6.88 1.088 9.824 3.328 55.424 42.944 158.752 163.808 181.376 231.584 18.24 54.752 13.056 106.048-14.592 144.448-22.592 31.328-71.552 68.64-176.608 68.64h-64zM800 560c0-194.976-228.864-313.728-271.552-334.176-39.296 21.28-240.448 139.744-240.448 334.176v304h512v-304zM352 64c-36.512 0-64-27.52-64-64v-48c0-8.832 7.168-16 16-16h448c8.832 0 16 7.168 16 16v45.6c0 37.216-28.128 66.4-64 66.4h-352zM736-2.4v-29.6h-416v32c0 18.848 13.152 32 32 32h352c18.24 0 32-14.784 32-34.4z" />
<glyph unicode="&#xe913;" glyph-name="trophy2, cup1, winner1, tournament1, race1, award2" data-tags="trophy, cup, winner, tournament, race, award" horiz-adv-x="1088" d="M816 928c8.832 0 16 7.168 16 16s-7.168 16-16 16h-544c-8.832 0-16-7.168-16-16s7.168-16 16-16h544zM816 896h-608c-105.056 0-154.016-37.312-176.608-68.608-27.648-38.4-32.832-89.696-14.592-144.448 28.224-84.672 123.072-186.4 181.376-231.584 2.944-2.272 6.4-3.36 9.824-3.36 4.768 0 9.504 2.112 12.672 6.208 5.408 6.976 4.128 17.024-2.848 22.464-53.568 41.472-144.8 138.944-170.624 216.416-14.944 44.704-11.328 85.76 10.176 115.584 26.080 36.192 78.144 55.328 150.624 55.328h48v-304c0-215.232 213.536-339.232 257.152-362.304-0.672-1.792-1.152-3.68-1.152-5.696v-80c0-8.832 7.168-16 16-16s16 7.168 16 16v80c0 1.856-0.48 3.584-1.056 5.248 48.448 22.784 289.056 146.752 289.056 362.752v304h48c72.48 0 124.544-19.136 150.624-55.328 21.504-29.824 25.12-70.88 10.176-115.616-20.16-60.512-120.608-177.696-170.624-216.416-6.976-5.408-8.256-15.456-2.848-22.464 3.168-4.064 7.904-6.176 12.672-6.176 3.424 0 6.88 1.088 9.824 3.328 55.424 42.944 158.752 163.808 181.376 231.584 18.24 54.752 13.056 106.048-14.592 144.448-22.592 31.328-71.552 68.64-176.608 68.64h-64zM800 560c0-194.976-228.864-313.728-271.552-334.176-39.296 21.28-240.448 139.744-240.448 334.176v304h512v-304zM352 64c-36.512 0-64-27.52-64-64v-48c0-8.832 7.168-16 16-16h448c8.832 0 16 7.168 16 16v45.6c0 37.216-28.128 66.4-64 66.4h-352zM736-2.4v-29.6h-416v32c0 18.848 13.152 32 32 32h352c18.24 0 32-14.784 32-34.4z" />
<glyph unicode="&#xe914;" glyph-name="document-play" data-tags="document-play" d="M608 864v-192.061c0-35.565 28.739-63.939 64.189-63.939h159.811v-544.082c0-35.408-28.617-63.918-63.918-63.918h-480.165c-35.408 0-63.918 28.759-63.918 64.235v735.531c0 35.488 28.776 64.235 64.273 64.235h319.727zM640 864v-191.906c0-17.725 14.431-32.094 31.705-32.094h160.295l-192 224zM384 416v-288l288 144-288 144zM416 364.8v-185.6l185.602 92.8-185.602 92.8z" />
<glyph unicode="&#xe915;" glyph-name="document-play1" data-tags="document-play" d="M624 864h16l192-224v-576.295c0-34.963-28.617-63.705-63.918-63.705h-480.165c-35.408 0-63.918 28.759-63.918 64.235v735.531c0 35.488 28.693 64.235 64.088 64.235h335.912zM608 832h-320.142c-17.595 0-31.858-14.568-31.858-31.855v-736.291c0-17.593 14.551-31.855 31.999-31.855h480.003c17.672 0 31.999 14.238 31.999 31.789v544.211h-128.067c-35.309 0-63.933 28.37-63.933 64.189v159.811zM640 816v-143.719c0-17.828 14.421-32.281 31.896-32.281h118.503l-150.398 176zM384 416l288-144-288-144v288zM416 364.8v-185.6l185.602 92.8-185.602 92.8z" />
<glyph unicode="&#xe916;" glyph-name="document-movie" data-tags="document-movie" d="M608 864v-192.061c0-35.565 28.739-63.939 64.189-63.939h159.811v-544.082c0-35.408-28.617-63.918-63.918-63.918h-480.165c-35.408 0-63.918 28.759-63.918 64.235v735.531c0 35.488 28.776 64.235 64.273 64.235h319.727zM640 864v-191.906c0-17.725 14.431-32.094 31.705-32.094h160.295l-192 224zM320 448v-352h416v352h-416zM416 416v-128h224v128h-224zM416 256v-128h224v128h-224zM352 416v-32h32v32h-32zM352 352v-32h32v32h-32zM352 288v-32h32v32h-32zM352 224v-32h32v32h-32zM352 160v-32h32v32h-32zM672 416v-32h32v32h-32zM672 352v-32h32v32h-32zM672 288v-32h32v32h-32zM672 224v-32h32v32h-32zM672 160v-32h32v32h-32z" />
<glyph unicode="&#xe917;" glyph-name="document-movie1" data-tags="document-movie" d="M624 864h16l192-224v-576.295c0-34.963-28.617-63.705-63.918-63.705h-480.165c-35.408 0-63.918 28.759-63.918 64.235v735.531c0 35.488 28.693 64.235 64.088 64.235h335.912zM608 832h-320.142c-17.595 0-31.858-14.568-31.858-31.855v-736.291c0-17.593 14.551-31.855 31.999-31.855h480.003c17.672 0 31.999 14.238 31.999 31.789v544.211h-128.067c-35.309 0-63.933 28.37-63.933 64.189v159.811zM640 816v-143.719c0-17.828 14.421-32.281 31.896-32.281h118.503l-150.398 176zM320 448h416v-352h-416v352zM416 416v-128h224v128h-224zM416 256v-128h224v128h-224zM352 416v-32h32v32h-32zM352 352v-32h32v32h-32zM352 288v-32h32v32h-32zM352 224v-32h32v32h-32zM352 160v-32h32v32h-32zM672 416v-32h32v32h-32zM672 352v-32h32v32h-32zM672 288v-32h32v32h-32zM672 224v-32h32v32h-32zM672 160v-32h32v32h-32z" />
<glyph unicode="&#xe918;" glyph-name="trophy-one" data-tags="trophy-one" d="M512 128h-128v-32h288v32h-128v160c106.054 0.092 192 85.871 192 191.778v0.222c112 48 128 288 128 288h-672c0 0 16-240 128-288v-0.222c0-105.86 86.103-191.686 192-191.778v-160zM320 736v-220.8c-75.066 53.739-92.8 220.8-92.8 220.8h92.8zM735.438 736h92.812c0 0-17.746-166.431-92.812-220.17v220.17zM543.904 384h-31.904v192h-64v32c52.81 0 64 28.654 64 64h31.904v-288z" />
<glyph unicode="&#xe919;" glyph-name="trophy-one2" data-tags="trophy-one" d="M512 128v160c-105.897 0.092-192 85.918-192 191.778v0.222c-112 48-128 288-128 288h672c0 0-16-240-128-288v0-0.222c0-105.907-85.946-191.687-192-191.778v-160h128v-32h-288v32h128zM352 736v-255.759c0-88.499 71.657-160.241 160.035-160.241h31.93c88.385 0 160.035 71.513 160.035 160.241v255.759h-352zM320 736h-92.8c0 0 17.733-167.061 92.8-220.8v220.8zM735.438 736v-220.17c75.066 53.739 92.812 220.17 92.812 220.17h-92.812zM543.904 384h-31.904v192h-64v32c52.81 0 64 28.654 64 64h31.904v-288z" />
<glyph unicode="&#xe91a;" glyph-name="award3" data-tags="award" d="M500.044 288.251l-128.796-335.525-55.22 124.027-124.027-55.22 127.293 331.609c50.579-38.469 112.955-62.225 180.751-64.89v0zM706.375 353.141l127.293-331.609-124.027 55.22-55.22-124.027-128.796 335.525c67.795 2.665 130.172 26.421 180.751 64.89v0 0zM512.834 320c159.058 0 288 128.942 288 288s-128.942 288-288 288c-159.058 0-288-128.942-288-288s128.942-288 288-288v0zM512.834 521.846l-112-73.846 48 128-96 64h112l48 128 48-128h112l-96-64 48-128-112 73.846z" />
<glyph unicode="&#xe91b;" glyph-name="award5" data-tags="award" d="M512.231 320.001l-140.984-367.275-55.22 124.027-124.027-55.22 139.295 362.876c-64.959 52.806-106.462 133.352-106.462 223.591 0 159.058 128.942 288 288 288s288-128.942 288-288c0-90.239-41.503-170.785-106.462-223.591l139.295-362.876-124.027 55.22-55.22-124.027-140.984 367.275c-0.201 0-0.402-0.001-0.603-0.001s-0.402 0-0.603 0.001v0 0zM478.722 321.999v0 0c-43.999 5.192-84.96 20.303-120.587 43.034l-108.737-283.27 82.685 36.814 36.814-82.685 109.826 286.107zM667.533 365.033v0 0c-35.627-22.731-76.589-37.842-120.587-43.034l109.826-286.107 36.814 82.685 82.685-36.814-108.737 283.27zM512.834 352c141.385 0 256 114.615 256 256s-114.615 256-256 256c-141.385 0-256-114.615-256-256s114.615-256 256-256v0zM512.834 521.846l-112-73.846 48 128-96 64h112l48 128 48-128h112l-96-64 48-128-112 73.846z" />
<glyph unicode="&#xe91c;" glyph-name="award7" data-tags="award" d="M500.044 288.251l-128.796-335.525-55.22 124.027-124.027-55.22 127.293 331.609c50.579-38.469 112.955-62.225 180.751-64.89v0zM706.375 353.141l127.293-331.609-124.027 55.22-55.22-124.027-128.796 335.525c67.795 2.665 130.172 26.421 180.751 64.89v0 0zM512.834 320v0c-159.058 0-288 128.942-288 288s128.942 288 288 288c159.058 0 288-128.942 288-288s-128.942-288-288-288zM512.834 416c106.039 0 192 85.961 192 192s-85.961 192-192 192c-106.039 0-192-85.961-192-192s85.961-192 192-192v0zM512.834 448c88.366 0 160 71.634 160 160s-71.634 160-160 160c-88.366 0-160-71.634-160-160s71.634-160 160-160v0z" />
<glyph unicode="&#xe91d;" glyph-name="award9" data-tags="award" d="M512.231 320.001l-140.984-367.275-55.22 124.027-124.027-55.22 139.295 362.876c-64.959 52.806-106.462 133.352-106.462 223.591 0 159.058 128.942 288 288 288s288-128.942 288-288c0-90.239-41.503-170.785-106.462-223.591l139.295-362.876-124.027 55.22-55.22-124.027-140.984 367.275c-0.201 0-0.402-0.001-0.603-0.001s-0.402 0-0.603 0.001v0 0zM478.722 321.999v0 0c-43.999 5.192-84.96 20.303-120.587 43.034l-108.737-283.27 82.685 36.814 36.814-82.685 109.826 286.107zM667.533 365.033v0 0c-35.627-22.731-76.589-37.842-120.587-43.034l109.826-286.107 36.814 82.685 82.685-36.814-108.737 283.27zM512.834 352c141.385 0 256 114.615 256 256s-114.615 256-256 256c-141.385 0-256-114.615-256-256s114.615-256 256-256v0zM512.834 416v0c-106.039 0-192 85.961-192 192s85.961 192 192 192c106.039 0 192-85.961 192-192s-85.961-192-192-192zM512.834 448c88.366 0 160 71.634 160 160s-71.634 160-160 160c-88.366 0-160-71.634-160-160s71.634-160 160-160v0z" />
<glyph unicode="&#xe91e;" glyph-name="award11" data-tags="award" d="M320 383.977v-415.977l192 192 192-192v415.977c-53.482-40.172-119.961-63.977-192-63.977s-138.518 23.804-192 63.977v0 0zM512 352c159.058 0 288 128.942 288 288s-128.942 288-288 288c-159.058 0-288-128.942-288-288s128.942-288 288-288v0zM512 553.846l-112-73.846 48 128-96 64h112l48 128 48-128h112l-96-64 48-128-112 73.846z" />
<glyph unicode="&#xe91f;" glyph-name="award13" data-tags="award" d="M320 425.334v0 0c-58.92 52.735-96 129.37-96 214.666 0 159.058 128.942 288 288 288s288-128.942 288-288c0-85.296-37.080-161.931-96-214.666v-457.334l-192 192-192-192v457.334zM352 400.498v-355.697l160 160 160-160v355.697c-45.763-30.633-100.795-48.498-160-48.498s-114.237 17.865-160 48.498v0 0zM512 384c141.385 0 256 114.615 256 256s-114.615 256-256 256c-141.385 0-256-114.615-256-256s114.615-256 256-256v0zM512 553.846l-112-73.846 48 128-96 64h112l48 128 48-128h112l-96-64 48-128-112 73.846z" />
<glyph unicode="&#xe920;" glyph-name="award15" data-tags="award" d="M320 383.977v-415.977l192 192 192-192v415.977c-53.482-40.172-119.961-63.977-192-63.977s-138.518 23.804-192 63.977v0 0zM512 352v0c-159.058 0-288 128.942-288 288s128.942 288 288 288c159.058 0 288-128.942 288-288s-128.942-288-288-288zM512 448c106.039 0 192 85.961 192 192s-85.961 192-192 192c-106.039 0-192-85.961-192-192s85.961-192 192-192v0zM512 480c88.366 0 160 71.634 160 160s-71.634 160-160 160c-88.366 0-160-71.634-160-160s71.634-160 160-160v0z" />
<glyph unicode="&#xe921;" glyph-name="award17" data-tags="award" d="M320 425.334v0 0c-58.92 52.735-96 129.37-96 214.666 0 159.058 128.942 288 288 288s288-128.942 288-288c0-85.296-37.080-161.931-96-214.666v-457.334l-192 192-192-192v457.334zM352 400.498v-355.697l160 160 160-160v355.697c-45.763-30.633-100.795-48.498-160-48.498s-114.237 17.865-160 48.498v0 0zM512 384c141.385 0 256 114.615 256 256s-114.615 256-256 256c-141.385 0-256-114.615-256-256s114.615-256 256-256v0zM512 448v0c-106.039 0-192 85.961-192 192s85.961 192 192 192c106.039 0 192-85.961 192-192s-85.961-192-192-192zM512 480c88.366 0 160 71.634 160 160s-71.634 160-160 160c-88.366 0-160-71.634-160-160s71.634-160 160-160v0z" />
<glyph unicode="&#xe922;" glyph-name="trophy10" data-tags="trophy" d="M672 160v96h-128v128c106.054 0.092 192 85.871 192 191.778v0.222c112 48 128 288 128 288h-672c0 0 16-240 128-288v-0.222c0-105.86 86.103-191.686 192-191.778v-128h-128v-96h-96v-128h480v128h-96zM320 832v-220.8c-75.066 53.739-92.8 220.8-92.8 220.8h92.8zM735.438 832h92.812c0 0-17.746-166.431-92.812-220.17v220.17z" />
<glyph unicode="&#xe923;" glyph-name="trophy12" data-tags="trophy" d="M672 160h96v-128h-480v128h96v96h128v128c-105.897 0.092-192 85.918-192 191.778v0.222c-112 48-128 288-128 288h672c0 0-16-240-128-288v-0.222c0-105.907-85.946-191.687-192-191.778v-128h128v-96zM352 832v-255.759c0-88.499 71.657-160.241 160.035-160.241h31.93c88.385 0 160.035 71.513 160.035 160.241v255.759h-352zM320 832h-92.8c0 0 17.733-167.061 92.8-220.8v220.8zM735.438 832v-220.17c75.066 53.739 92.812 220.17 92.812 220.17h-92.812zM416 224v-64h224v64h-224zM320 128v-64h416v64h-416z" />
<glyph unicode="&#xe924;" glyph-name="trophy14" data-tags="trophy" d="M512 128h-128v-32h288v32h-128v160c106.054 0.092 192 85.871 192 191.778v0.222c112 48 128 288 128 288h-672c0 0 16-240 128-288v-0.222c0-105.86 86.103-191.686 192-191.778v-160zM320 736v-220.8c-75.066 53.739-92.8 220.8-92.8 220.8h92.8zM735.438 736h92.812c0 0-17.746-166.431-92.812-220.17v220.17z" />
<glyph unicode="&#xe925;" glyph-name="trophy16" data-tags="trophy" d="M512 128v160c-105.897 0.092-192 85.918-192 191.778v0.222c-112 48-128 288-128 288h672c0 0-16-240-128-288v0-0.222c0-105.907-85.946-191.687-192-191.778v-160h128v-32h-288v32h128zM352 736v-255.759c0-88.499 71.657-160.241 160.035-160.241h31.93c88.385 0 160.035 71.513 160.035 160.241v255.759h-352zM320 736h-92.8c0 0 17.733-167.061 92.8-220.8v220.8zM735.438 736v-220.17c75.066 53.739 92.812 220.17 92.812 220.17h-92.812z" />
<glyph unicode="&#xe926;" glyph-name="trophy-one1" data-tags="trophy-one" d="M512 128h-128v-32h288v32h-128v160c106.054 0.092 192 85.871 192 191.778v0.222c112 48 128 288 128 288h-672c0 0 16-240 128-288v-0.222c0-105.86 86.103-191.686 192-191.778v-160zM320 736v-220.8c-75.066 53.739-92.8 220.8-92.8 220.8h92.8zM735.438 736h92.812c0 0-17.746-166.431-92.812-220.17v220.17zM543.904 384h-31.904v192h-64v32c52.81 0 64 28.654 64 64h31.904v-288z" />
<glyph unicode="&#xe927;" glyph-name="trophy-one3" data-tags="trophy-one" d="M512 128v160c-105.897 0.092-192 85.918-192 191.778v0.222c-112 48-128 288-128 288h672c0 0-16-240-128-288v0-0.222c0-105.907-85.946-191.687-192-191.778v-160h128v-32h-288v32h128zM352 736v-255.759c0-88.499 71.657-160.241 160.035-160.241h31.93c88.385 0 160.035 71.513 160.035 160.241v255.759h-352zM320 736h-92.8c0 0 17.733-167.061 92.8-220.8v220.8zM735.438 736v-220.17c75.066 53.739 92.812 220.17 92.812 220.17h-92.812zM543.904 384h-31.904v192h-64v32c52.81 0 64 28.654 64 64h31.904v-288z" />
<glyph unicode="&#xe928;" glyph-name="award4" data-tags="award" d="M500.044 288.251l-128.796-335.525-55.22 124.027-124.027-55.22 127.293 331.609c50.579-38.469 112.955-62.225 180.751-64.89v0zM706.375 353.141l127.293-331.609-124.027 55.22-55.22-124.027-128.796 335.525c67.795 2.665 130.172 26.421 180.751 64.89v0 0zM512.834 320c159.058 0 288 128.942 288 288s-128.942 288-288 288c-159.058 0-288-128.942-288-288s128.942-288 288-288v0zM512.834 521.846l-112-73.846 48 128-96 64h112l48 128 48-128h112l-96-64 48-128-112 73.846z" />
<glyph unicode="&#xe929;" glyph-name="award6" data-tags="award" d="M512.231 320.001l-140.984-367.275-55.22 124.027-124.027-55.22 139.295 362.876c-64.959 52.806-106.462 133.352-106.462 223.591 0 159.058 128.942 288 288 288s288-128.942 288-288c0-90.239-41.503-170.785-106.462-223.591l139.295-362.876-124.027 55.22-55.22-124.027-140.984 367.275c-0.201 0-0.402-0.001-0.603-0.001s-0.402 0-0.603 0.001v0 0zM478.722 321.999v0 0c-43.999 5.192-84.96 20.303-120.587 43.034l-108.737-283.27 82.685 36.814 36.814-82.685 109.826 286.107zM667.533 365.033v0 0c-35.627-22.731-76.589-37.842-120.587-43.034l109.826-286.107 36.814 82.685 82.685-36.814-108.737 283.27zM512.834 352c141.385 0 256 114.615 256 256s-114.615 256-256 256c-141.385 0-256-114.615-256-256s114.615-256 256-256v0zM512.834 521.846l-112-73.846 48 128-96 64h112l48 128 48-128h112l-96-64 48-128-112 73.846z" />
<glyph unicode="&#xe92a;" glyph-name="award8" data-tags="award" d="M500.044 288.251l-128.796-335.525-55.22 124.027-124.027-55.22 127.293 331.609c50.579-38.469 112.955-62.225 180.751-64.89v0zM706.375 353.141l127.293-331.609-124.027 55.22-55.22-124.027-128.796 335.525c67.795 2.665 130.172 26.421 180.751 64.89v0 0zM512.834 320v0c-159.058 0-288 128.942-288 288s128.942 288 288 288c159.058 0 288-128.942 288-288s-128.942-288-288-288zM512.834 416c106.039 0 192 85.961 192 192s-85.961 192-192 192c-106.039 0-192-85.961-192-192s85.961-192 192-192v0zM512.834 448c88.366 0 160 71.634 160 160s-71.634 160-160 160c-88.366 0-160-71.634-160-160s71.634-160 160-160v0z" />
<glyph unicode="&#xe92b;" glyph-name="award10" data-tags="award" d="M512.231 320.001l-140.984-367.275-55.22 124.027-124.027-55.22 139.295 362.876c-64.959 52.806-106.462 133.352-106.462 223.591 0 159.058 128.942 288 288 288s288-128.942 288-288c0-90.239-41.503-170.785-106.462-223.591l139.295-362.876-124.027 55.22-55.22-124.027-140.984 367.275c-0.201 0-0.402-0.001-0.603-0.001s-0.402 0-0.603 0.001v0 0zM478.722 321.999v0 0c-43.999 5.192-84.96 20.303-120.587 43.034l-108.737-283.27 82.685 36.814 36.814-82.685 109.826 286.107zM667.533 365.033v0 0c-35.627-22.731-76.589-37.842-120.587-43.034l109.826-286.107 36.814 82.685 82.685-36.814-108.737 283.27zM512.834 352c141.385 0 256 114.615 256 256s-114.615 256-256 256c-141.385 0-256-114.615-256-256s114.615-256 256-256v0zM512.834 416v0c-106.039 0-192 85.961-192 192s85.961 192 192 192c106.039 0 192-85.961 192-192s-85.961-192-192-192zM512.834 448c88.366 0 160 71.634 160 160s-71.634 160-160 160c-88.366 0-160-71.634-160-160s71.634-160 160-160v0z" />
<glyph unicode="&#xe92c;" glyph-name="award12" data-tags="award" d="M320 383.977v-415.977l192 192 192-192v415.977c-53.482-40.172-119.961-63.977-192-63.977s-138.518 23.804-192 63.977v0 0zM512 352c159.058 0 288 128.942 288 288s-128.942 288-288 288c-159.058 0-288-128.942-288-288s128.942-288 288-288v0zM512 553.846l-112-73.846 48 128-96 64h112l48 128 48-128h112l-96-64 48-128-112 73.846z" />
<glyph unicode="&#xe92d;" glyph-name="award14" data-tags="award" d="M320 425.334v0 0c-58.92 52.735-96 129.37-96 214.666 0 159.058 128.942 288 288 288s288-128.942 288-288c0-85.296-37.080-161.931-96-214.666v-457.334l-192 192-192-192v457.334zM352 400.498v-355.697l160 160 160-160v355.697c-45.763-30.633-100.795-48.498-160-48.498s-114.237 17.865-160 48.498v0 0zM512 384c141.385 0 256 114.615 256 256s-114.615 256-256 256c-141.385 0-256-114.615-256-256s114.615-256 256-256v0zM512 553.846l-112-73.846 48 128-96 64h112l48 128 48-128h112l-96-64 48-128-112 73.846z" />
<glyph unicode="&#xe92e;" glyph-name="award16" data-tags="award" d="M320 383.977v-415.977l192 192 192-192v415.977c-53.482-40.172-119.961-63.977-192-63.977s-138.518 23.804-192 63.977v0 0zM512 352v0c-159.058 0-288 128.942-288 288s128.942 288 288 288c159.058 0 288-128.942 288-288s-128.942-288-288-288zM512 448c106.039 0 192 85.961 192 192s-85.961 192-192 192c-106.039 0-192-85.961-192-192s85.961-192 192-192v0zM512 480c88.366 0 160 71.634 160 160s-71.634 160-160 160c-88.366 0-160-71.634-160-160s71.634-160 160-160v0z" />
<glyph unicode="&#xe92f;" glyph-name="award18" data-tags="award" d="M320 425.334v0 0c-58.92 52.735-96 129.37-96 214.666 0 159.058 128.942 288 288 288s288-128.942 288-288c0-85.296-37.080-161.931-96-214.666v-457.334l-192 192-192-192v457.334zM352 400.498v-355.697l160 160 160-160v355.697c-45.763-30.633-100.795-48.498-160-48.498s-114.237 17.865-160 48.498v0 0zM512 384c141.385 0 256 114.615 256 256s-114.615 256-256 256c-141.385 0-256-114.615-256-256s114.615-256 256-256v0zM512 448v0c-106.039 0-192 85.961-192 192s85.961 192 192 192c106.039 0 192-85.961 192-192s-85.961-192-192-192zM512 480c88.366 0 160 71.634 160 160s-71.634 160-160 160c-88.366 0-160-71.634-160-160s71.634-160 160-160v0z" />
<glyph unicode="&#xe930;" glyph-name="trophy11" data-tags="trophy" d="M672 160v96h-128v128c106.054 0.092 192 85.871 192 191.778v0.222c112 48 128 288 128 288h-672c0 0 16-240 128-288v-0.222c0-105.86 86.103-191.686 192-191.778v-128h-128v-96h-96v-128h480v128h-96zM320 832v-220.8c-75.066 53.739-92.8 220.8-92.8 220.8h92.8zM735.438 832h92.812c0 0-17.746-166.431-92.812-220.17v220.17z" />
<glyph unicode="&#xe931;" glyph-name="trophy13" data-tags="trophy" d="M672 160h96v-128h-480v128h96v96h128v128c-105.897 0.092-192 85.918-192 191.778v0.222c-112 48-128 288-128 288h672c0 0-16-240-128-288v-0.222c0-105.907-85.946-191.687-192-191.778v-128h128v-96zM352 832v-255.759c0-88.499 71.657-160.241 160.035-160.241h31.93c88.385 0 160.035 71.513 160.035 160.241v255.759h-352zM320 832h-92.8c0 0 17.733-167.061 92.8-220.8v220.8zM735.438 832v-220.17c75.066 53.739 92.812 220.17 92.812 220.17h-92.812zM416 224v-64h224v64h-224zM320 128v-64h416v64h-416z" />
<glyph unicode="&#xe932;" glyph-name="trophy15" data-tags="trophy" d="M512 128h-128v-32h288v32h-128v160c106.054 0.092 192 85.871 192 191.778v0.222c112 48 128 288 128 288h-672c0 0 16-240 128-288v-0.222c0-105.86 86.103-191.686 192-191.778v-160zM320 736v-220.8c-75.066 53.739-92.8 220.8-92.8 220.8h92.8zM735.438 736h92.812c0 0-17.746-166.431-92.812-220.17v220.17z" />
<glyph unicode="&#xe933;" glyph-name="trophy17" data-tags="trophy" d="M512 128v160c-105.897 0.092-192 85.918-192 191.778v0.222c-112 48-128 288-128 288h672c0 0-16-240-128-288v0-0.222c0-105.907-85.946-191.687-192-191.778v-160h128v-32h-288v32h128zM352 736v-255.759c0-88.499 71.657-160.241 160.035-160.241h31.93c88.385 0 160.035 71.513 160.035 160.241v255.759h-352zM320 736h-92.8c0 0 17.733-167.061 92.8-220.8v220.8zM735.438 736v-220.17c75.066 53.739 92.812 220.17 92.812 220.17h-92.812z" />
<glyph unicode="&#xe934;" glyph-name="image, picture, photo1" data-tags="image, picture, photo" d="M256 192v256l128 128 128-128 256 256 256-256v-256zM128 64v896l-128-128v-896h896l128 128z" />
<glyph unicode="&#xe935;" glyph-name="camera4, photos3, pictures3" data-tags="camera, photos, pictures" d="M512 320c0 70.692 57.308 128 128 128s128-57.308 128-128c0-70.692-57.308-128-128-128s-128 57.308-128 128zM896 704l-105.248 212.576c-8.64 25.248-32.512 43.424-60.768 43.424h-175.744c-28.576 0-52.672-18.624-60.928-44.32l-109.184-211.68h-256.128c-70.688 0-128-57.312-128-128v-640h1024v640c0 70.688-57.248 128-128 128zM192 448c-35.36 0-64 28.64-64 64s28.64 64 64 64 64-28.64 64-64-28.64-64-64-64zM640 64c-141.376 0-256 114.624-256 256s114.624 256 256 256 256-114.624 256-256-114.624-256-256-256z" />
<glyph unicode="&#xe936;" glyph-name="steering-wheel, drive" data-tags="steering-wheel, drive" d="M512 960c-282.752 0-512-229.248-512-512s229.248-512 512-512 512 229.248 512 512-229.248 512-512 512zM512 832c166.624 0 307.36-107.328 360.512-256h-721.024c53.152 148.672 193.888 256 360.512 256zM512 384c-35.36 0-64 28.64-64 64s28.64 64 64 64 64-28.64 64-64-28.64-64-64-64zM128 448c174.88 0 316.512-168.512 319.488-377.504-180.992 31.008-319.488 187.872-319.488 377.504zM576.512 70.496c2.976 208.992 144.608 377.504 319.488 377.504 0-189.632-138.496-346.496-319.488-377.504z" />
<glyph unicode="&#xe937;" glyph-name="award-stroke, medal" data-tags="award-stroke, medal" horiz-adv-x="512" d="M256 320c-45.12 0-87.744 9.248-128 23.488v-407.488l128 128 128-128v407.488c-40.256-14.24-82.88-23.488-128-23.488zM256 960c-141.376 0-256-114.624-256-256s114.624-256 256-256 256 114.624 256 256-114.624 256-256 256zM256 576c-70.752 0-128 57.312-128 128s57.248 128 128 128 128-57.312 128-128-57.248-128-128-128z" />
<glyph unicode="&#xe938;" glyph-name="award-fill, medal1" data-tags="award-fill, medal" horiz-adv-x="512" d="M256 320c-45.12 0-87.744 9.248-128 23.552v-407.552l128 128 128-128v407.552c-40.256-14.304-82.88-23.552-128-23.552zM0 704c0 141.385 114.615 256 256 256s256-114.615 256-256c0-141.385-114.615-256-256-256s-256 114.615-256 256z" />
<glyph unicode="&#xe939;" glyph-name="camera1, video1, movie1" data-tags="camera, video, movie" d="M960 96l-192 160v-160c0-35.328-28.672-64-64-64h-640c-35.328 0-64 28.672-64 64v544c0 35.328 28.672 64 64 64h246.336l-94.656 128h-183.68c-17.664 0-32 14.304-32 32s14.336 32 32 32h192c17.664 0 32-14.304 32-32l130.304-160h317.696c35.328 0 64-28.672 64-64v-160l192 192c35.328 0 64-28.672 64-64v-448c0-35.328-24.672-64-64-64zM672 640h-192c-17.696 0-32-14.304-32-32s14.304-32 32-32h192c17.696 0 32 14.304 32 32s-14.304 32-32 32z" />
<glyph unicode="&#xe93a;" glyph-name="picture2, photos4, images3" data-tags="picture, photos, images" d="M640 576l-192-320-127.040 92.672-0.96 3.328-7.552 2.912 5.888-4.32-190.336-158.592v-64h768v64l-96 288-160 96zM288 544c52.992 0 96 42.976 96 96s-43.008 96-96 96-96-42.976-96-96 43.008-96 96-96zM992 896h-960c-17.664 0-32-14.336-32-32v-832c0-17.696 14.336-32 32-32h960c17.696 0 32 14.304 32 32v832c0 17.664-14.304 32-32 32zM960 96c0-17.696-14.304-32-32-32h-832c-17.664 0-32 14.304-32 32v704c0 17.664 14.336 32 32 32h832c17.696 0 32-14.336 32-32v-704z" />
<glyph unicode="&#xe93b;" glyph-name="camera10, photos5, images4, pictures4" data-tags="camera, photos, images, pictures" d="M992 768h-176l-48 96c0 17.664-14.304 32-32 32h-448c-17.696 0-32-14.336-32-32l-48-96h-176c-17.664 0-32-14.336-32-32v-704c0-17.696 14.336-32 32-32h960c17.696 0 32 14.304 32 32v704c0 17.664-14.304 32-32 32zM512 128c-141.376 0-256 114.624-256 256s114.624 256 256 256 256-114.624 256-256c0-141.376-114.624-256-256-256zM512 512c-70.688 0-128-57.312-128-128s57.312-128 128-128 128 57.312 128 128-57.312 128-128 128z" />
<glyph unicode="&#xe93c;" glyph-name="play, media-control" data-tags="play, media control" d="M192 960v-1024l640 511.264-640 512.736z" />
<glyph unicode="&#xe93d;" glyph-name="film3, movies, videos" data-tags="film, movies, videos" d="M928 960h-832c-17.664 0-32-14.336-32-32v-960c0-17.696 14.336-32 32-32h832c17.696 0 32 14.304 32 32v960c0 17.664-14.304 32-32 32zM160 64c-17.664 0-32 14.304-32 32s14.336 32 32 32 32-14.304 32-32-14.336-32-32-32zM160 192c-17.664 0-32 14.304-32 32s14.336 32 32 32 32-14.304 32-32-14.336-32-32-32zM160 320c-17.664 0-32 14.304-32 32s14.336 32 32 32 32-14.304 32-32-14.336-32-32-32zM160 448c-17.664 0-32 14.336-32 32s14.336 32 32 32 32-14.336 32-32-14.336-32-32-32zM160 576c-17.664 0-32 14.336-32 32s14.336 32 32 32 32-14.336 32-32-14.336-32-32-32zM160 704c-17.664 0-32 14.336-32 32s14.336 32 32 32 32-14.336 32-32-14.336-32-32-32zM160 832c-17.664 0-32 14.336-32 32s14.336 32 32 32 32-14.336 32-32-14.336-32-32-32zM768 32c0-17.696-14.304-32-32-32h-448c-17.664 0-32 14.304-32 32v320c0 17.696 14.336 32 32 32h448c17.696 0 32-14.304 32-32v-320zM768 480c0-17.664-14.304-32-32-32h-448c-17.664 0-32 14.336-32 32v384c0 17.664 14.336 32 32 32h448c17.696 0 32-14.336 32-32v-384zM864 64c-17.696 0-32 14.304-32 32s14.304 32 32 32 32-14.304 32-32-14.304-32-32-32zM864 192c-17.696 0-32 14.304-32 32s14.304 32 32 32 32-14.304 32-32-14.304-32-32-32zM864 320c-17.696 0-32 14.304-32 32s14.304 32 32 32 32-14.304 32-32-14.304-32-32-32zM864 448c-17.696 0-32 14.336-32 32s14.304 32 32 32 32-14.336 32-32-14.304-32-32-32zM864 576c-17.696 0-32 14.336-32 32s14.304 32 32 32 32-14.336 32-32-14.304-32-32-32zM864 704c-17.696 0-32 14.336-32 32s14.304 32 32 32 32-14.336 32-32-14.304-32-32-32zM864 832c-17.696 0-32 14.336-32 32s14.304 32 32 32 32-14.336 32-32-14.304-32-32-32z" />
<glyph unicode="&#xe93e;" glyph-name="trophy7, cup2, prize, tournament2" data-tags="trophy, cup, prize, tournament" d="M784 960h-544c-132.576 0-240-107.424-240-240s107.424-240 240-240h43.648c51.072-52.032 119.68-86.72 196.352-94.336v-321.664h-96l-128-128h512l-128 128h-96v321.664c76.672 7.616 145.28 42.304 196.352 94.336h43.648c132.576 0 240 107.424 240 240s-107.424 240-240 240zM64 720c0 80.448 54.272 147.52 128 168.544v-184.544c0-58.112 15.744-112.512 42.848-159.456-94.752 2.784-170.848 80.032-170.848 175.456zM789.152 544.544c27.104 46.944 42.848 101.344 42.848 159.456v184.544c73.728-20.992 128-88.096 128-168.544 0-95.424-76.096-172.672-170.848-175.456z" />
<glyph unicode="&#xe93f;" glyph-name="trophy8, cup3, prize1, tournament3" data-tags="trophy, cup, prize, tournament" d="M784 960h-544c-132.576 0-240-107.424-240-240s107.424-240 240-240h43.648c51.072-52.032 119.68-86.72 196.352-94.336v-321.664h-96l-128-128h512l-128 128h-96v321.664c76.672 7.616 145.28 42.304 196.352 94.336h43.648c132.576 0 240 107.424 240 240s-107.424 240-240 240zM64 720c0 80.448 54.272 147.52 128 168.544v-184.544c0-58.112 15.744-112.512 42.848-159.456-94.752 2.784-170.848 80.032-170.848 175.456zM789.152 544.544c27.104 46.944 42.848 101.344 42.848 159.456v184.544c73.728-20.992 128-88.096 128-168.544 0-95.424-76.096-172.672-170.848-175.456z" />
<glyph unicode="&#xe940;" glyph-name="image6" data-tags="image, picture, photo, graphic" d="M959.884 832c0.040-0.034 0.082-0.076 0.116-0.116v-767.77c-0.034-0.040-0.076-0.082-0.116-0.116h-895.77c-0.040 0.034-0.082 0.076-0.114 0.116v767.772c0.034 0.040 0.076 0.082 0.114 0.114h895.77zM960 896h-896c-35.2 0-64-28.8-64-64v-768c0-35.2 28.8-64 64-64h896c35.2 0 64 28.8 64 64v768c0 35.2-28.8 64-64 64v0zM832 672c0-53.020-42.98-96-96-96s-96 42.98-96 96 42.98 96 96 96 96-42.98 96-96zM896 128h-768v128l224 384 256-320h64l224 192z" />
<glyph unicode="&#xe941;" glyph-name="play3" data-tags="play, video, movie" d="M981.188 799.892c-143.632 20.65-302.332 32.108-469.186 32.108-166.86 0-325.556-11.458-469.194-32.108-27.53-107.726-42.808-226.75-42.808-351.892 0-125.14 15.278-244.166 42.808-351.89 143.638-20.652 302.336-32.11 469.194-32.11 166.854 0 325.552 11.458 469.186 32.11 27.532 107.724 42.812 226.75 42.812 351.89 0 125.142-15.28 244.166-42.812 351.892zM384.002 256v384l320-192-320-192z" />
<glyph unicode="&#xe942;" glyph-name="film7" data-tags="film, video, movie, tape, play" d="M0 832v-768h1024v768h-1024zM192 128h-128v128h128v-128zM192 384h-128v128h128v-128zM192 640h-128v128h128v-128zM768 128h-512v640h512v-640zM960 128h-128v128h128v-128zM960 384h-128v128h128v-128zM960 640h-128v128h128v-128zM384 640v-384l256 192z" />
<glyph unicode="&#xe943;" glyph-name="file-picture" data-tags="file-picture, file, document, file-image" d="M832 64h-640v128l192 320 263-320 185 128v-256zM832 480c0-53.020-42.98-96-96-96-53.022 0-96 42.98-96 96s42.978 96 96 96c53.020 0 96-42.98 96-96zM917.806 730.924c-22.212 30.292-53.174 65.7-87.178 99.704s-69.412 64.964-99.704 87.178c-51.574 37.82-76.592 42.194-90.924 42.194h-496c-44.112 0-80-35.888-80-80v-864c0-44.112 35.888-80 80-80h736c44.112 0 80 35.888 80 80v624c0 14.332-4.372 39.35-42.194 90.924zM785.374 785.374c30.7-30.7 54.8-58.398 72.58-81.374h-153.954v153.946c22.984-17.78 50.678-41.878 81.374-72.572zM896 16c0-8.672-7.328-16-16-16h-736c-8.672 0-16 7.328-16 16v864c0 8.672 7.328 16 16 16 0 0 495.956 0.002 496 0v-224c0-17.672 14.326-32 32-32h224v-624z" />
<glyph unicode="&#xe944;" glyph-name="file-video" data-tags="file-video, file, document, file-camera" d="M917.806 730.924c-22.208 30.292-53.174 65.7-87.178 99.704s-69.412 64.964-99.704 87.178c-51.574 37.82-76.594 42.194-90.924 42.194h-496c-44.112 0-80-35.888-80-80v-864c0-44.112 35.882-80 80-80h736c44.112 0 80 35.888 80 80v624c0 14.332-4.372 39.35-42.194 90.924v0 0zM785.374 785.374c30.7-30.7 54.8-58.398 72.58-81.374h-153.954v153.946c22.98-17.78 50.678-41.878 81.374-72.572v0 0zM896 16c0-8.672-7.328-16-16-16h-736c-8.672 0-16 7.328-16 16v864c0 8.672 7.328 16 16 16 0 0 495.956 0.002 496 0v-224c0-17.672 14.32-32 32-32h224v-624zM256 448h320v-320h-320v320zM576 320l192 128v-320l-192 128z" />
<glyph unicode="&#xe945;" glyph-name="image1" data-tags="image" d="M213.333 853.334c-35.328 0-67.413-14.379-90.496-37.504s-37.504-55.168-37.504-90.496v-597.333c0-35.328 14.379-67.413 37.504-90.496s55.168-37.504 90.496-37.504h597.333c35.328 0 67.413 14.379 90.496 37.504s37.504 55.168 37.504 90.496v597.333c0 35.328-14.379 67.413-37.504 90.496s-55.168 37.504-90.496 37.504zM469.333 576c0 29.44-11.989 56.149-31.232 75.435s-45.995 31.232-75.435 31.232-56.149-11.989-75.435-31.232-31.232-45.995-31.232-75.435 11.989-56.149 31.232-75.435 45.995-31.232 75.435-31.232 56.149 11.989 75.435 31.232 31.232 45.995 31.232 75.435zM384 576c0-5.888-2.347-11.179-6.229-15.104s-9.216-6.229-15.104-6.229-11.179 2.347-15.104 6.229-6.229 9.216-6.229 15.104 2.347 11.179 6.229 15.104 9.216 6.229 15.104 6.229 11.179-2.347 15.104-6.229 6.229-9.216 6.229-15.104zM316.331 85.334l366.336 366.336 170.667-170.667v-153.003c0-11.776-4.736-22.4-12.501-30.165s-18.389-12.501-30.165-12.501zM853.333 401.664l-140.501 140.501c-16.683 16.683-43.691 16.683-60.331 0l-454.144-454.144c-5.76 2.133-10.88 5.504-15.189 9.813-7.765 7.765-12.501 18.389-12.501 30.165v597.333c0 11.776 4.736 22.4 12.501 30.165s18.389 12.501 30.165 12.501h597.333c11.776 0 22.4-4.736 30.165-12.501s12.501-18.389 12.501-30.165z" />
<glyph unicode="&#xe946;" glyph-name="camera5" data-tags="camera" d="M1024 128v469.333c0 35.328-14.379 67.413-37.504 90.496s-55.168 37.504-90.496 37.504h-147.84l-72.661 109.013c-7.765 11.52-20.736 18.987-35.499 18.987h-256c-13.909-0.085-27.307-6.741-35.499-18.987l-72.661-109.013h-147.84c-35.328 0-67.413-14.379-90.496-37.504s-37.504-55.168-37.504-90.496v-469.333c0-35.328 14.379-67.413 37.504-90.496s55.168-37.504 90.496-37.504h768c35.328 0 67.413 14.379 90.496 37.504s37.504 55.168 37.504 90.496zM938.667 128c0-11.776-4.736-22.4-12.501-30.165s-18.389-12.501-30.165-12.501h-768c-11.776 0-22.4 4.736-30.165 12.501s-12.501 18.389-12.501 30.165v469.333c0 11.776 4.736 22.4 12.501 30.165s18.389 12.501 30.165 12.501h170.667c14.763 0 27.733 7.467 35.499 18.987l72.661 109.013h210.347l72.661-109.013c8.192-12.245 21.589-18.901 35.499-18.987h170.667c11.776 0 22.4-4.736 30.165-12.501s12.501-18.389 12.501-30.165zM725.333 384c0 58.88-23.936 112.299-62.464 150.869s-91.989 62.464-150.869 62.464-112.299-23.936-150.869-62.464-62.464-91.989-62.464-150.869 23.936-112.299 62.464-150.869 91.989-62.464 150.869-62.464 112.299 23.936 150.869 62.464 62.464 91.989 62.464 150.869zM640 384c0-35.371-14.293-67.285-37.504-90.496s-55.125-37.504-90.496-37.504-67.285 14.293-90.496 37.504-37.504 55.125-37.504 90.496 14.293 67.285 37.504 90.496 55.125 37.504 90.496 37.504 67.285-14.293 90.496-37.504 37.504-55.125 37.504-90.496z" />
<glyph unicode="&#xe947;" glyph-name="airplay" data-tags="airplay" d="M213.333 256h-42.667c-11.776 0-22.4 4.736-30.165 12.501s-12.501 18.389-12.501 30.165v426.667c0 11.776 4.736 22.4 12.501 30.165s18.389 12.501 30.165 12.501h682.667c11.776 0 22.4-4.736 30.165-12.501s12.501-18.389 12.501-30.165v-426.667c0-11.776-4.736-22.4-12.501-30.165s-18.389-12.501-30.165-12.501h-42.667c-23.552 0-42.667-19.115-42.667-42.667s19.115-42.667 42.667-42.667h42.667c35.328 0 67.413 14.379 90.496 37.504s37.504 55.168 37.504 90.496v426.667c0 35.328-14.379 67.413-37.504 90.496s-55.168 37.504-90.496 37.504h-682.667c-35.328 0-67.413-14.379-90.496-37.504s-37.504-55.168-37.504-90.496v-426.667c0-35.328 14.379-67.413 37.504-90.496s55.168-37.504 90.496-37.504h42.667c23.552 0 42.667 19.115 42.667 42.667s-19.115 42.667-42.667 42.667zM544.768 325.974c-1.493 1.835-3.371 3.712-5.461 5.461-18.091 15.104-45.013 12.629-60.075-5.461l-213.333-256c-6.144-7.339-9.899-16.896-9.899-27.307 0-23.552 19.115-42.667 42.667-42.667h426.667c9.6-0.043 19.328 3.2 27.307 9.899 18.091 15.104 20.565 41.984 5.461 60.075zM512 232.022l122.24-146.688h-244.48z" />
<glyph unicode="&#xe948;" glyph-name="award" data-tags="award" d="M639.403 280.576l32-241.152-137.429 82.475c-13.269 7.851-29.995 8.363-43.904 0l-137.429-82.475 32.043 241.109c39.296-15.829 82.304-24.533 127.317-24.533s88.021 8.747 127.403 24.576zM654.165 384.384c-2.475-1.28-4.821-2.773-6.955-4.48-39.253-24.448-85.547-38.571-135.211-38.571-70.699 0-134.656 28.587-181.035 74.965s-74.965 110.336-74.965 181.035 28.587 134.656 74.965 181.035 110.336 74.965 181.035 74.965 134.656-28.587 181.035-74.965 74.965-110.336 74.965-181.035-28.587-134.656-74.965-181.035c-11.861-11.861-24.875-22.571-38.869-31.915zM304.64 326.187l-48.256-363.221c-3.115-23.339 13.312-44.8 36.693-47.915 9.984-1.323 19.669 0.939 27.563 5.717l191.36 114.816 191.403-114.816c20.224-12.117 46.421-5.589 58.539 14.635 5.205 8.661 6.955 18.389 5.717 27.563l-48.213 363.307c11.947 9.173 23.296 19.115 33.92 29.739 61.696 61.696 99.968 147.072 99.968 241.323s-38.272 179.627-99.968 241.365-147.115 99.968-241.365 99.968-179.627-38.272-241.365-99.968-99.968-147.115-99.968-241.365 38.272-179.627 99.968-241.365c10.667-10.667 22.016-20.608 33.963-29.781z" />
<glyph unicode="&#xe949;" glyph-name="now_wallpaper" data-tags="now_wallpaper" d="M170 384.667v-300h300v-84h-300q-34 0-59 25t-25 59v300h84zM854 84.667v300h84v-300q0-34-25-59t-59-25h-300v84h300zM854 852.667q34 0 59-25t25-59v-300h-84v300h-300v84h300zM726 576.667q0-26-19-45t-45-19-45 19-19 45 19 45 45 19 45-19 19-45zM426 384.667l128-158 86 114 128-170h-512zM170 768.667v-300h-84v300q0 34 25 59t59 25h300v-84h-300z" />
<glyph unicode="&#xe94a;" glyph-name="insert_photo" data-tags="insert_photo, image, photo" d="M362 362.667l-148-192h596l-192 256-148-192zM896 128.667q0-34-26-60t-60-26h-596q-34 0-60 26t-26 60v596q0 34 26 60t60 26h596q34 0 60-26t26-60v-596z" />
<glyph unicode="&#xe94b;" glyph-name="collections" data-tags="collections, photo_library" d="M86 682.667h84v-598h598v-84h-598q-34 0-59 25t-25 59v598zM470 426.667l-128-170h512l-172 212-126-158zM938 256.667q0-34-25-60t-59-26h-512q-34 0-60 26t-26 60v512q0 34 26 59t60 25h512q34 0 59-25t25-59v-512z" />
<glyph unicode="&#xe94c;" glyph-name="photo_album" data-tags="photo_album" d="M256 128.667h512l-164 218-128-164-92 110zM256 768.667v-342l106 64 108-64v342h-214zM768 852.667q34 0 60-25t26-59v-684q0-34-26-59t-60-25h-512q-34 0-60 25t-26 59v684q0 34 26 59t60 25h512z" />
<glyph unicode="&#xe94d;" glyph-name="photo_camera_back" data-tags="photo_camera_back" d="M854 724.667q34 0 59-25t25-59v-512q0-36-25-61t-59-25h-684q-34 0-59 25t-25 61v512q0 34 25 59t59 25h136l78 86h256l78-86h136zM854 128.667v512h-684v-512h684zM598 426.667l-128-158-86 116-128-172h512z" />
<glyph unicode="&#xe94e;" glyph-name="trophy" data-tags="trophy" d="M572.416 237.773c0 74.291 56.32 115.405 148.173 176.23 112.333 74.547 252.211 167.168 252.211 387.072 0 19.814-16.23 35.789-36.301 35.789h-175.616c-24.781 45.875-98.765 94.976-248.883 94.976-150.221 0-224.102-49.101-248.934-94.976h-175.667c-20.019 0-36.198-16.026-36.198-35.789 0-219.904 139.776-312.525 252.211-387.021 91.853-60.826 148.173-101.939 148.173-176.23v-67.123c-96.461-10.701-167.373-46.387-167.373-88.883 0-50.893 101.99-92.109 227.789-92.109s227.789 41.216 227.789 92.109c0 42.496-70.912 78.182-167.373 88.883v67.072zM714.598 496.64c28.979 61.389 52.019 144.691 55.706 268.595h128.512c-12.288-138.291-95.334-208.077-184.218-268.595zM512 869.069c139.878 0.102 194.509-57.088 194.458-78.285 0-21.402-54.579-78.49-194.458-78.592-139.878 0.051-194.509 57.139-194.509 78.541-0.051 21.197 54.63 78.438 194.509 78.336zM125.184 765.235h128.461c3.738-123.904 26.675-207.206 55.757-268.595-88.883 60.518-171.981 130.304-184.218 268.595z" />
<glyph unicode="&#xe94f;" glyph-name="play-outline" data-tags="play-outline" d="M150.016 98.816c-96.436 93.233-156.308 223.762-156.308 368.276 0 282.77 229.23 512 512 512 144.514 0 275.043-59.872 368.137-156.164l0.138-0.144c88.925-91.979 143.724-217.436 143.724-355.692 0-282.77-229.23-512-512-512-138.256 0-263.713 54.799-355.836 143.863l0.144-0.138zM801.792 171.008c74.164 74.164 120.036 176.621 120.036 289.792 0 226.342-183.486 409.828-409.828 409.828-113.171 0-215.628-45.872-289.792-120.036v0c-74.164-74.164-120.036-176.621-120.036-289.792 0-226.342 183.486-409.828 409.828-409.828 113.171 0 215.628 45.872 289.792 120.036v0zM358.4 665.6l409.6-204.8-409.6-204.8v409.6z" />
<glyph unicode="&#xe950;" glyph-name="video-camera2" data-tags="video-camera" d="M819.2 614.4l204.8 204.8v-716.8l-204.8 204.8v-153.6c0-56.554-45.846-102.4-102.4-102.4v0h-614.4c-56.554 0-102.4 45.846-102.4 102.4v0 614.4c0 56.32 46.080 102.4 102.4 102.4h614.4c56.554 0 102.4-45.846 102.4-102.4v0-153.6zM409.6 256c113.108 0 204.8 91.692 204.8 204.8s-91.692 204.8-204.8 204.8v0c-113.108 0-204.8-91.692-204.8-204.8s91.692-204.8 204.8-204.8v0zM409.6 358.4c-56.554 0-102.4 45.846-102.4 102.4s45.846 102.4 102.4 102.4v0c56.554 0 102.4-45.846 102.4-102.4s-45.846-102.4-102.4-102.4v0z" />
<glyph unicode="&#xe951;" glyph-name="film5" data-tags="film" d="M0 768c0 56.32 46.080 102.4 102.4 102.4h819.2c56.554 0 102.4-45.846 102.4-102.4v0-614.4c0-56.554-45.846-102.4-102.4-102.4v0h-819.2c-56.554 0-102.4 45.846-102.4 102.4v0 614.4zM307.2 768v-614.4h409.6v614.4h-409.6zM102.4 716.8v-102.4h102.4v102.4h-102.4zM102.4 512v-102.4h102.4v102.4h-102.4zM102.4 307.2v-102.4h102.4v102.4h-102.4zM819.2 716.8v-102.4h102.4v102.4h-102.4zM819.2 512v-102.4h102.4v102.4h-102.4zM819.2 307.2v-102.4h102.4v102.4h-102.4zM409.6 614.4l256-153.6-256-153.6v307.2z" />
<glyph unicode="&#xe952;" glyph-name="play1" data-tags="play" d="M204.8 768l614.4-307.2-614.4-307.2z" />
<glyph unicode="&#xe953;" glyph-name="trophy9" data-tags="trophy" d="M768 512c84.831 0 153.6 68.769 153.6 153.6v0h102.4c0-0.015 0-0.033 0-0.051 0-141.385-114.615-256-256-256-1.8 0-3.596 0.019-5.388 0.056l0.268-0.004c-21.059-100.662-99.018-178.62-198.013-199.387l-1.667-0.293v-107.52l256-102.4v-51.2h-614.4v51.2l256 102.4v107.52c-100.662 21.059-178.62 99.018-199.387 198.013l-0.293 1.667h-5.12c-141.385 0-256 114.615-256 256v0h102.4c0-84.831 68.769-153.6 153.6-153.6v0 256h-153.6v-102.4h-102.4v204.8h256v102.4h512v-102.4h256v-204.8h-102.4v102.4h-153.6v-256z" />
<glyph unicode="&#xe954;" glyph-name="file-image-o, file-photo-o, file-picture-o" data-tags="file-image-o, file-photo-o, file-picture-o" horiz-adv-x="878" d="M838.857 733.714c21.143-21.143 38.857-63.429 38.857-93.714v-658.286c0-30.286-24.571-54.857-54.857-54.857h-768c-30.286 0-54.857 24.571-54.857 54.857v914.286c0 30.286 24.571 54.857 54.857 54.857h512c30.286 0 72.571-17.714 93.714-38.857zM585.143 873.143v-214.857h214.857c-3.429 9.714-8.571 19.429-12.571 23.429l-178.857 178.857c-4 4-13.714 9.143-23.429 12.571zM804.571 0v585.143h-237.714c-30.286 0-54.857 24.571-54.857 54.857v237.714h-438.857v-877.714h731.429zM731.429 256v-182.857h-585.143v109.714l109.714 109.714 73.143-73.143 219.429 219.429zM256 365.714c-60.571 0-109.714 49.143-109.714 109.714s49.143 109.714 109.714 109.714 109.714-49.143 109.714-109.714-49.143-109.714-109.714-109.714z" />
<glyph unicode="&#xe955;" glyph-name="video-camera1" data-tags="video-camera" d="M1024 749.714v-621.714c0-14.857-9.143-28-22.286-33.714-4.571-1.714-9.714-2.857-14.286-2.857-9.714 0-18.857 3.429-25.714 10.857l-230.286 230.286v-94.857c0-90.857-73.714-164.571-164.571-164.571h-402.286c-90.857 0-164.571 73.714-164.571 164.571v402.286c0 90.857 73.714 164.571 164.571 164.571h402.286c90.857 0 164.571-73.714 164.571-164.571v-94.286l230.286 229.714c6.857 7.429 16 10.857 25.714 10.857 4.571 0 9.714-1.143 14.286-2.857 13.143-5.714 22.286-18.857 22.286-33.714z" />
<glyph unicode="&#xe956;" glyph-name="display2" data-tags="display, screen, monitor, computer, desktop, pc" d="M0 896v-640h1024v640h-1024zM960 320h-896v512h896v-512zM672 192h-320l-32-128-64-64h512l-64 64z" />
<glyph unicode="&#xe957;" glyph-name="camera8" data-tags="camera" horiz-adv-x="1097" d="M548.571 566.857c90.857 0 164.571-73.714 164.571-164.571s-73.714-164.571-164.571-164.571-164.571 73.714-164.571 164.571 73.714 164.571 164.571 164.571zM950.857 804.571c80.571 0 146.286-65.714 146.286-146.286v-512c0-80.571-65.714-146.286-146.286-146.286h-804.571c-80.571 0-146.286 65.714-146.286 146.286v512c0 80.571 65.714 146.286 146.286 146.286h128l29.143 77.714c14.286 37.714 58.857 68.571 98.857 68.571h292.571c40 0 84.571-30.857 98.857-68.571l29.143-77.714h128zM548.571 146.286c141.143 0 256 114.857 256 256s-114.857 256-256 256-256-114.857-256-256 114.857-256 256-256z" />
<glyph unicode="&#xe958;" glyph-name="image5, photo4, picture-o" data-tags="image, photo, picture-o" horiz-adv-x="1097" d="M365.714 621.714c0-60.571-49.143-109.714-109.714-109.714s-109.714 49.143-109.714 109.714 49.143 109.714 109.714 109.714 109.714-49.143 109.714-109.714zM950.857 402.286v-256h-804.571v109.714l182.857 182.857 91.429-91.429 292.571 292.571zM1005.714 804.571h-914.286c-9.714 0-18.286-8.571-18.286-18.286v-694.857c0-9.714 8.571-18.286 18.286-18.286h914.286c9.714 0 18.286 8.571 18.286 18.286v694.857c0 9.714-8.571 18.286-18.286 18.286zM1097.143 786.286v-694.857c0-50.286-41.143-91.429-91.429-91.429h-914.286c-50.286 0-91.429 41.143-91.429 91.429v694.857c0 50.286 41.143 91.429 91.429 91.429h914.286c50.286 0 91.429-41.143 91.429-91.429z" />
<glyph unicode="&#xe959;" glyph-name="file-movie-o, file-video-o" data-tags="file-movie-o, file-video-o" horiz-adv-x="878" d="M838.857 733.714c21.143-21.143 38.857-63.429 38.857-93.714v-658.286c0-30.286-24.571-54.857-54.857-54.857h-768c-30.286 0-54.857 24.571-54.857 54.857v914.286c0 30.286 24.571 54.857 54.857 54.857h512c30.286 0 72.571-17.714 93.714-38.857zM585.143 873.143v-214.857h214.857c-3.429 9.714-8.571 19.429-12.571 23.429l-178.857 178.857c-4 4-13.714 9.143-23.429 12.571zM804.571 0v585.143h-237.714c-30.286 0-54.857 24.571-54.857 54.857v237.714h-438.857v-877.714h731.429zM438.857 512c40 0 73.143-33.143 73.143-73.143v-219.429c0-40-33.143-73.143-73.143-73.143h-219.429c-40 0-73.143 33.143-73.143 73.143v219.429c0 40 33.143 73.143 73.143 73.143h219.429zM720 510.857c6.857-2.857 11.429-9.714 11.429-17.143v-329.143c0-7.429-4.571-14.286-11.429-17.143-2.286-0.571-4.571-1.143-6.857-1.143-4.571 0-9.714 1.714-13.143 5.143l-151.429 152v51.429l151.429 152c3.429 3.429 8.571 5.143 13.143 5.143 2.286 0 4.571-0.571 6.857-1.143z" />
<glyph unicode="&#xe95a;" glyph-name="youtube-play" data-tags="youtube-play" d="M406.286 306.286l276.571 142.857-276.571 144.571v-287.429zM512 798.857c215.429 0 358.286-10.286 358.286-10.286 20-2.286 64-2.286 102.857-43.429 0 0 31.429-30.857 40.571-101.714 10.857-82.857 10.286-165.714 10.286-165.714v-77.714s0.571-82.857-10.286-165.714c-9.143-70.286-40.571-101.714-40.571-101.714-38.857-40.571-82.857-40.571-102.857-42.857 0 0-142.857-10.857-358.286-10.857v0c-266.286 2.286-348 10.286-348 10.286-22.857 4-74.286 2.857-113.143 43.429 0 0-31.429 31.429-40.571 101.714-10.857 82.857-10.286 165.714-10.286 165.714v77.714s-0.571 82.857 10.286 165.714c9.143 70.857 40.571 101.714 40.571 101.714 38.857 41.143 82.857 41.143 102.857 43.429 0 0 142.857 10.286 358.286 10.286v0z" />
<glyph unicode="&#xe95b;" glyph-name="video-camera3" data-tags="video-camera" d="M1024 749.714v-621.714c0-14.857-9.143-28-22.286-33.714-4.571-1.714-9.714-2.857-14.286-2.857-9.714 0-18.857 3.429-25.714 10.857l-230.286 230.286v-94.857c0-90.857-73.714-164.571-164.571-164.571h-402.286c-90.857 0-164.571 73.714-164.571 164.571v402.286c0 90.857 73.714 164.571 164.571 164.571h402.286c90.857 0 164.571-73.714 164.571-164.571v-94.286l230.286 229.714c6.857 7.429 16 10.857 25.714 10.857 4.571 0 9.714-1.143 14.286-2.857 13.143-5.714 22.286-18.857 22.286-33.714z" />
<glyph unicode="&#xe95c;" glyph-name="play-circle" data-tags="play-circle" horiz-adv-x="878" d="M438.857 877.714c242.286 0 438.857-196.571 438.857-438.857s-196.571-438.857-438.857-438.857-438.857 196.571-438.857 438.857 196.571 438.857 438.857 438.857zM658.286 407.428c11.429 6.286 18.286 18.286 18.286 31.429s-6.857 25.143-18.286 31.429l-310.857 182.857c-10.857 6.857-25.143 6.857-36.571 0.571-11.429-6.857-18.286-18.857-18.286-32v-365.714c0-13.143 6.857-25.143 18.286-32 5.714-2.857 12-4.571 18.286-4.571s12.571 1.714 18.286 5.143z" />
<glyph unicode="&#xe95d;" glyph-name="film6" data-tags="film" horiz-adv-x="1097" d="M219.429 36.571v73.143c0 20-16.571 36.571-36.571 36.571h-73.143c-20 0-36.571-16.571-36.571-36.571v-73.143c0-20 16.571-36.571 36.571-36.571h73.143c20 0 36.571 16.571 36.571 36.571zM219.429 256v73.143c0 20-16.571 36.571-36.571 36.571h-73.143c-20 0-36.571-16.571-36.571-36.571v-73.143c0-20 16.571-36.571 36.571-36.571h73.143c20 0 36.571 16.571 36.571 36.571zM219.429 475.428v73.143c0 20-16.571 36.571-36.571 36.571h-73.143c-20 0-36.571-16.571-36.571-36.571v-73.143c0-20 16.571-36.571 36.571-36.571h73.143c20 0 36.571 16.571 36.571 36.571zM804.571 36.571v292.571c0 20-16.571 36.571-36.571 36.571h-438.857c-20 0-36.571-16.571-36.571-36.571v-292.571c0-20 16.571-36.571 36.571-36.571h438.857c20 0 36.571 16.571 36.571 36.571zM219.429 694.857v73.143c0 20-16.571 36.571-36.571 36.571h-73.143c-20 0-36.571-16.571-36.571-36.571v-73.143c0-20 16.571-36.571 36.571-36.571h73.143c20 0 36.571 16.571 36.571 36.571zM1024 36.571v73.143c0 20-16.571 36.571-36.571 36.571h-73.143c-20 0-36.571-16.571-36.571-36.571v-73.143c0-20 16.571-36.571 36.571-36.571h73.143c20 0 36.571 16.571 36.571 36.571zM804.571 475.428v292.571c0 20-16.571 36.571-36.571 36.571h-438.857c-20 0-36.571-16.571-36.571-36.571v-292.571c0-20 16.571-36.571 36.571-36.571h438.857c20 0 36.571 16.571 36.571 36.571zM1024 256v73.143c0 20-16.571 36.571-36.571 36.571h-73.143c-20 0-36.571-16.571-36.571-36.571v-73.143c0-20 16.571-36.571 36.571-36.571h73.143c20 0 36.571 16.571 36.571 36.571zM1024 475.428v73.143c0 20-16.571 36.571-36.571 36.571h-73.143c-20 0-36.571-16.571-36.571-36.571v-73.143c0-20 16.571-36.571 36.571-36.571h73.143c20 0 36.571 16.571 36.571 36.571zM1024 694.857v73.143c0 20-16.571 36.571-36.571 36.571h-73.143c-20 0-36.571-16.571-36.571-36.571v-73.143c0-20 16.571-36.571 36.571-36.571h73.143c20 0 36.571 16.571 36.571 36.571zM1097.143 786.286v-768c0-50.286-41.143-91.429-91.429-91.429h-914.286c-50.286 0-91.429 41.143-91.429 91.429v768c0 50.286 41.143 91.429 91.429 91.429h914.286c50.286 0 91.429-41.143 91.429-91.429z" />
<glyph unicode="&#xe95e;" glyph-name="play2" data-tags="play" horiz-adv-x="809" d="M790.857 421.143l-758.857-421.714c-17.714-9.714-32-1.143-32 18.857v841.143c0 20 14.286 28.571 32 18.857l758.857-421.714c17.714-9.714 17.714-25.714 0-35.429z" />
<glyph unicode="&#xe95f;" glyph-name="trophy3" data-tags="trophy" horiz-adv-x="951" d="M261.714 446.286c-24 52.571-42.286 122.286-42.286 212h-146.286v-54.857c0-56 76-133.714 188.571-157.143zM877.714 603.428v54.857h-146.286c0-89.714-18.286-159.429-42.286-212 112.571 23.429 188.571 101.143 188.571 157.143zM950.857 676.571v-73.143c0-108.571-131.429-228.571-309.714-237.143-22.857-29.143-44-46.286-54.286-54.286-30.286-27.429-38.286-56-38.286-92.571s18.286-73.143 73.143-73.143 109.714-36.571 109.714-91.429v-36.571c0-10.286-8-18.286-18.286-18.286h-475.429c-10.286 0-18.286 8-18.286 18.286v36.571c0 54.857 54.857 91.429 109.714 91.429s73.143 36.571 73.143 73.143-8 65.143-38.286 92.571c-10.286 8-31.429 25.143-54.286 54.286-178.286 8.571-309.714 128.571-309.714 237.143v73.143c0 30.286 24.571 54.857 54.857 54.857h164.571v54.857c0 50.286 41.143 91.429 91.429 91.429h329.143c50.286 0 91.429-41.143 91.429-91.429v-54.857h164.571c30.286 0 54.857-24.571 54.857-54.857z" />
<glyph unicode="&#xe960;" glyph-name="trophy4" data-tags="trophy" horiz-adv-x="951" d="M261.714 446.286c-24 52.571-42.286 122.286-42.286 212h-146.286v-54.857c0-56 76-133.714 188.571-157.143zM877.714 603.428v54.857h-146.286c0-89.714-18.286-159.429-42.286-212 112.571 23.429 188.571 101.143 188.571 157.143zM950.857 676.571v-73.143c0-108.571-131.429-228.571-309.714-237.143-22.857-29.143-44-46.286-54.286-54.286-30.286-27.429-38.286-56-38.286-92.571s18.286-73.143 73.143-73.143 109.714-36.571 109.714-91.429v-36.571c0-10.286-8-18.286-18.286-18.286h-475.429c-10.286 0-18.286 8-18.286 18.286v36.571c0 54.857 54.857 91.429 109.714 91.429s73.143 36.571 73.143 73.143-8 65.143-38.286 92.571c-10.286 8-31.429 25.143-54.286 54.286-178.286 8.571-309.714 128.571-309.714 237.143v73.143c0 30.286 24.571 54.857 54.857 54.857h164.571v54.857c0 50.286 41.143 91.429 91.429 91.429h329.143c50.286 0 91.429-41.143 91.429-91.429v-54.857h164.571c30.286 0 54.857-24.571 54.857-54.857z" />
<glyph unicode="&#xe961;" glyph-name="video-camera" data-tags="video-camera" d="M967.166 739.555c-6.583 0-13.362-1.278-20.028-4.028l-264.471-108.802v112.83c0 31.417-25.472 56.889-56.889 56.889h-568.889c-31.417 0-56.889-25.472-56.889-56.889v-568.889c0-31.417 25.472-56.889 56.889-56.889h568.889c31.417 0 56.889 25.472 56.889 56.889v112.832l264.473-108.804c6.667-2.75 13.444-4.028 20.028-4.028 30.137 0 56.832 26.722 56.832 62.473v443.943c0 35.751-26.695 62.473-56.834 62.473zM568.889 256c0-15.723-12.722-28.444-28.444-28.444h-398.222c-15.723 0-28.444 12.722-28.444 28.444v398.222c0 15.723 12.722 28.444 28.444 28.444h398.222c15.723 0 28.444-12.722 28.444-28.444v-398.222zM910.222 312.917l-227.556 93.611v97.166l227.556 93.611v-284.388z" />
<glyph unicode="&#xe962;" glyph-name="image3" data-tags="image" d="M967.104 910.222h-910.21c-31.41 0-56.876-25.467-56.876-56.878v-796.452c0-31.412 25.467-56.892 56.876-56.892h910.21c31.41 0 56.878 25.481 56.878 56.892v796.452c0 31.412-25.468 56.878-56.878 56.878zM910.197 142.222c0-15.705-12.718-28.439-28.437-28.439h-460.661l318.672 318.681 170.427-170.421v-119.82zM910.197 420.661l-123.461 123.452c-1.972 2.91-4.24 5.682-6.816 8.261-11.177 11.177-25.883 16.67-40.532 16.503-14.569 0.167-29.195-5.298-40.316-16.42-2.299-2.299-4.34-4.756-6.156-7.324l-431.339-431.351h-119.339c-15.719 0-28.437 12.734-28.437 28.439v625.778c0 15.721 12.718 28.453 28.437 28.453h739.522c15.719 0 28.437-12.732 28.437-28.453v-347.339zM341.339 682.67c-62.85 0-113.783-50.933-113.783-113.783 0-62.836 50.933-113.769 113.783-113.769 62.82 0 113.783 50.933 113.783 113.769 0 62.85-50.964 113.783-113.783 113.783z" />
<glyph unicode="&#xe963;" glyph-name="camera9" data-tags="camera" d="M967.111 739.555h-227.556l-97.111 97.111c-10.667 10.667-25.14 16.667-40.222 16.667h-180.444c-15.083 0-29.556-6-40.222-16.667l-97.111-97.111h-227.556c-31.417 0-56.889-25.472-56.889-56.889v-568.889c0-31.417 25.472-56.889 56.889-56.889h113.778c31.417 0 56.889 25.472 56.889 56.889s-25.472 56.889-56.889 56.889h-28.444c-15.723 0-28.444 12.736-28.444 28.444v398.222c0 15.708 12.722 28.444 28.444 28.444h189.362l113.778 113.778h133.278l113.776-113.778h189.362c15.723 0 28.444-12.736 28.444-28.444v-398.222c0-15.708-12.722-28.444-28.444-28.444h-28.444c-31.417 0-56.889-25.472-56.889-56.889 0-31.125 24.999-56.32 56.028-56.805l-0.028-0.084h114.667c31.417 0 56.889 25.472 56.889 56.889v568.889c0 31.417-25.472 56.889-56.889 56.889zM512 455.111c62.75 0 113.778-51.042 113.778-113.778s-51.028-113.778-113.778-113.778-113.778 51.042-113.778 113.778 51.028 113.778 113.778 113.778zM512 568.889c-125.668 0-227.556-101.876-227.556-227.556s101.888-227.556 227.556-227.556 227.556 101.876 227.556 227.556-101.888 227.556-227.556 227.556v0z" />
<glyph unicode="&#xe964;" glyph-name="trophy5" data-tags="trophy" d="M967.111 796.444h-170.667v56.889c0 31.417-25.472 56.889-56.889 56.889h-455.111c-31.417 0-56.889-25.472-56.889-56.889v-56.889h-170.667c-31.417 0-56.889-25.472-56.889-56.889v-113.778c0-91.445 60.612-227.556 227.556-227.556h23.833c36.555-83.636 112.114-146.334 203.723-164.958v-119.486h-56.889c-62.834 0-113.778-50.944-113.778-113.778h455.111c0 62.834-50.944 113.778-113.778 113.778h-56.889v119.486c91.607 18.624 167.166 81.323 203.723 164.958h23.833c166.944 0 227.556 136.11 227.556 227.556v113.778c0 31.417-25.472 56.889-56.889 56.889zM227.556 512c-103.89 0-113.333 87.388-113.778 113.778v56.889h113.778v-170.667zM682.667 476.499l-14.306-32.695c-27.221-62.249-88.583-102.471-156.361-102.471s-129.166 40.222-156.361 102.473l-14.306 32.693v319.945h341.333v-319.945zM910.222 625.778c0-19.001-5.5-113.778-113.778-113.778v170.667h113.778v-56.889zM797.723 396.972c0.86 0 0.972 0.306-1.278 1.25v-1.111c0.473-0.084 0.944-0.139 1.278-0.139zM226.277 396.972c0.334 0 0.805 0.055 1.278 0.139v1.111c-2.251-0.944-2.139-1.25-1.278-1.25z" />
<glyph unicode="&#xe965;" glyph-name="trophy6" data-tags="trophy" d="M967.111 796.444h-170.667v56.889c0 31.417-25.472 56.889-56.889 56.889h-455.111c-31.417 0-56.889-25.472-56.889-56.889v-56.889h-170.667c-31.417 0-56.889-25.472-56.889-56.889v-113.778c0-91.445 60.612-227.556 227.556-227.556h23.833c36.555-83.636 112.114-146.334 203.723-164.958v-119.486h-56.889c-62.834 0-113.778-50.944-113.778-113.778h455.111c0 62.834-50.944 113.778-113.778 113.778h-56.889v119.486c91.607 18.624 167.166 81.323 203.723 164.958h23.833c166.944 0 227.556 136.11 227.556 227.556v113.778c0 31.417-25.472 56.889-56.889 56.889zM227.556 512c-103.89 0-113.333 87.388-113.778 113.778v56.889h113.778v-170.667zM682.667 476.499l-14.306-32.695c-27.221-62.249-88.583-102.471-156.361-102.471s-129.166 40.222-156.361 102.473l-14.306 32.693v319.945h341.333v-319.945zM910.222 625.778c0-19.001-5.5-113.778-113.778-113.778v170.667h113.778v-56.889zM797.723 396.972c0.86 0 0.972 0.306-1.278 1.25v-1.111c0.473-0.084 0.944-0.139 1.278-0.139zM226.277 396.972c0.334 0 0.805 0.055 1.278 0.139v1.111c-2.251-0.944-2.139-1.25-1.278-1.25z" />
<glyph unicode="&#xe966;" d="M0 960v-730.466h0.613c0.893 10.166 10.393 20.351 20.835 20.676 6.47 0.202 10.034-4.363 15.933-0.453l0.613-14.095c-6.148 1.851-5.835 11.153-14.095 12.14-15.471 1.857-13.936-19.922-12.973-29.911 0.345-3.579 0.238-7.292 2.466-10.363 3.015-4.155 11.527-5.656 14.964-1.152 2.239 2.935 1.671 7.446 1.671 10.902-2.993 0-5.756-0.447-7.354 2.451h22.674c-1.182-2.145-2.526-2.372-4.902-2.451-4.64-23.844-37.996-18.164-39.832 4.29h-0.613v-285.568h1024v280.665h-0.613v-14.095h-39.832v2.451h6.741v41.671h-6.741v2.451h38.607v-12.869h-2.451c-1.691 11.429-11.018 10.418-20.223 10.418v-18.997c3.015 0.006 6.183-0.043 8.267 2.531 1.746 2.169 1.379 4.614 3.989 6.048v-20.223c-2.801 1.538-2.304 4.296-4.106 6.661-1.998 2.617-5.178 2.525-8.15 2.531v-20.223c10.528 0 20.829-0.656 21.448 12.869l3.064-0.613v742.722h-1024z" />
<glyph unicode="&#xe967;" d="M500.663 415.828v0.613c-12.849 4.064-25.549 6.075-37.994 11.833-31.934 14.777-57.862 44.306-70.212 77.024-24.246 64.236 2.941 139.143 63.471 172.386 13.924 7.647 31.061 15.051 47.186 15.745v1.226c-28.943 0-54.833-2.609-80.89-16.735-80.696-43.746-96.205-159.535-30.616-223.431 20.383-19.856 46.996-34.056 75.351-37.876 11.409-1.536 22.298-0.786 33.704-0.786z" />
<glyph unicode="&#xe968;" d="M678.99 556.16h-144.622v-30.64h41.058c-0.003-24.393-16.036-46.835-34.93-60.895-5.010-3.728-14.801-11.91-21.448-11.409-5.254 0.396-11.611 5.020-15.933 7.772-14.043 8.941-26.441 20.951-35.282 35.117-27.399 43.901-22.551 100.282 14.447 137.269 8.622 8.619 18.787 16.294 30.028 21.188 3.23 1.406 7.401 4.012 11.031 3.678 5.498-0.506 11.846-4.505 16.546-7.187 13.852-7.903 25.042-18.091 34.93-30.548h0.613c5.336 5.336 13.956 10.904 17.159 17.771-15.956 10.909-31.681 21.956-51.476 24.512v0.613c8.737 0.18 16.963 1.488 25.738 0.438 29.462-3.525 56.501-19.525 74.15-43.334 6.49 4.573 12.127 10.967 17.771 16.543 1.489 1.469 5.325 3.823 5.307 6.154-0.037 3.521-6.097 8.119-8.371 10.394-9.566 9.571-20.413 18.124-32.479 24.354-34.961 18.048-77.243 23.176-114.595 9.090-22.59-8.519-43.267-22.141-58.78-40.798-48.653-58.51-43.031-147.157 14.658-197.761 49.768-43.656 127.696-44.565 176.488 1.105 10.418 9.752 18.341 22.196 24.665 34.875 11.257 22.572 13.329 46.925 13.329 71.698z" />
<glyph unicode="&#xe969;" d="M522.52 691.387v0zM588.090 691.387v0zM453.886 690.774v0zM488.203 690.774v0z" />
<glyph unicode="&#xe96a;" d="M443.672 687.914v0zM477.989 687.914v0zM509.855 687.914v0zM600.551 687.914v0z" />
<glyph unicode="&#xe96b;" d="M497.599 683.011v0zM613.42 683.011v0zM430.19 682.399v0zM463.895 682.399v0z" />
<glyph unicode="&#xe96c;" d="M627.514 675.658v0zM416.709 675.045v0zM450.413 675.045v0zM482.892 675.045v0z" />
<glyph unicode="&#xe96d;" d="M481.053 673.819v0zM630.578 673.819v0zM413.645 673.206v0zM447.349 673.206v0zM479.828 673.206v0z" />
<glyph unicode="&#xe96e;" d="M631.804 673.206v0zM412.419 672.594v0zM446.736 672.594v0zM478.602 672.594v0z" />
<glyph unicode="&#xe96f;" d="M479.215 672.594v0zM632.417 672.594v0zM411.806 671.981v0zM445.51 671.981v0zM477.989 671.981v0z" />
<glyph unicode="&#xe970;" d="M633.642 671.981v0zM410.58 671.368v0zM444.898 671.368v0zM476.764 671.368v0z" />
<glyph unicode="&#xe971;" d="M477.376 671.368v0zM634.255 671.368v0zM409.968 670.755v0zM443.672 670.755v0z" />
<glyph unicode="&#xe972;" glyph-name="users" data-tags="users, group, team, members, community, collaborate" horiz-adv-x="1152" d="M768 189.388v52.78c70.498 39.728 128 138.772 128 237.832 0 159.058 0 288-192 288s-192-128.942-192-288c0-99.060 57.502-198.104 128-237.832v-52.78c-217.102-17.748-384-124.42-384-253.388h896c0 128.968-166.898 235.64-384 253.388zM327.196 164.672c55.31 36.15 124.080 63.636 199.788 80.414-15.054 17.784-28.708 37.622-40.492 59.020-30.414 55.234-46.492 116.058-46.492 175.894 0 86.042 0 167.31 30.6 233.762 29.706 64.504 83.128 104.496 159.222 119.488-16.914 76.48-61.94 126.75-181.822 126.75-192 0-192-128.942-192-288 0-99.060 57.502-198.104 128-237.832v-52.78c-217.102-17.748-384-124.42-384-253.388h279.006c14.518 12.91 30.596 25.172 48.19 36.672z" />
<glyph unicode="&#xe973;" d="M637.932 668.917v0zM406.291 668.304v0zM440.608 668.304v0zM472.474 668.304v0z" />
<glyph unicode="&#xe974;" d="M405.065 667.078v0zM438.77 667.078v0zM471.248 667.078v0zM640.383 667.078v0z" />
<glyph unicode="&#xe975;" d="M468.184 664.627v0zM552.752 664.627v-0.613h7.966l-7.966 0.613zM643.447 664.627v0z" />
<glyph unicode="&#xe976;" d="M398.937 662.176v0zM432.642 662.176v0zM465.12 662.176v0zM546.011 662.176v0z" />
<glyph unicode="&#xe977;" d="M514.758 656.048v0zM530.078 656.048v0zM564.395 656.048v0zM596.261 656.048v0z" />
<glyph unicode="&#xe978;" d="M598.099 655.435v0zM653.865 655.435v0zM390.971 654.822v0zM424.675 654.822v0z" />
<glyph unicode="&#xe979;" d="M599.325 654.822v0zM654.478 654.822v0zM390.358 654.209v0zM424.062 654.209v0z" />
<glyph unicode="&#xe97a;" d="M600.551 654.209v0zM655.090 654.209v0zM389.745 653.597v0zM423.449 653.597v0z" />
<glyph unicode="&#xe97b;" d="M601.776 653.597v0zM655.703 653.597v0zM389.132 652.984v0zM422.837 652.984v0z" />
<glyph unicode="&#xe97c;" d="M453.477 651.145v0zM504.953 651.145v0zM539.883 651.145v0zM574.2 651.145v0zM606.066 651.145v0zM658.154 651.145v0zM386.681 650.533v0z" />
<glyph unicode="&#xe97d;" d="M502.501 649.92v0zM542.334 649.92v0zM576.038 649.92v0zM608.517 649.92v0z" />
<glyph unicode="&#xe97e;" d="M659.38 649.92v0zM385.455 649.307v0zM501.889 649.307v0zM542.947 649.307v0zM577.264 649.307v0zM609.13 649.307v0z" />
<glyph unicode="&#xe97f;" d="M545.398 648.081v0zM579.102 648.081v0zM611.581 648.081v0zM384.23 647.469v0z" />
<glyph unicode="&#xe980;" d="M498.825 647.469v0zM546.011 647.469v0zM580.328 647.469v0zM612.194 647.469v0z" />
<glyph unicode="&#xe981;" d="M497.599 646.856v0zM547.236 646.856v0zM580.941 646.856v0zM613.42 646.856v0zM661.831 646.856v0z" />
<glyph unicode="&#xe982;" d="M449.187 646.243v0zM496.986 646.243v0zM547.849 646.243v0zM582.166 646.243v0zM614.032 646.243v0zM662.444 646.243v0zM382.391 645.63v0z" />
<glyph unicode="&#xe983;" d="M495.761 645.63v0zM549.075 645.63v0zM582.779 645.63v0zM615.258 645.63v0z" />
<glyph unicode="&#xe984;" d="M447.349 643.792v0zM493.309 643.792v0zM551.526 643.792v0zM585.23 643.792v0zM617.709 643.792v0zM664.282 643.792v0zM380.553 643.179v0z" />
<glyph unicode="&#xe985;" d="M414.257 643.179v0zM446.736 643.179v0zM492.697 643.179v0zM552.139 643.179v0zM586.456 643.179v0zM618.322 643.179v0zM379.94 642.566v0z" />
<glyph unicode="&#xe986;" d="M490.858 641.953v0zM553.977 641.953v0zM587.682 641.953v0zM620.16 641.953v0zM445.51 641.341v0zM490.245 641.341v0z" />
<glyph unicode="&#xe987;" d="M411.193 639.502v0zM557.041 639.502v0zM590.746 639.502v0zM623.224 639.502v0zM660.606 639.502v0zM443.672 638.889v0zM487.181 638.889v0z" />
<glyph unicode="&#xe988;" d="M442.446 637.664v0zM485.956 637.664v0zM558.88 637.664v0zM592.584 637.664v0zM625.063 637.664v0z" />
<glyph unicode="&#xe989;" d="M485.343 637.051v0zM559.493 637.051v0zM591.971 637.051v0zM658.154 637.051v0z" />
<glyph unicode="&#xe98a;" d="M408.742 635.825v0zM441.221 635.825v0zM484.117 635.825v0zM590.746 635.825v0z" />
<glyph unicode="&#xe98b;" d="M637.319 625.408v0zM645.898 625.408v0zM434.48 624.795v0zM473.7 624.795v0z" />
<glyph unicode="&#xe98c;" d="M571.749 624.182v0zM578.49 624.182v0zM644.673 624.182v0zM572.361 623.569v0zM577.877 623.569v0zM638.545 623.569v0zM644.060 623.569v0z" />
<glyph unicode="&#xe98d;" d="M573.587 621.731v0zM576.038 621.731v0zM642.221 621.731v0zM365.846 621.118v0z" />
<glyph unicode="&#xe98e;" d="M574.2 621.118v0zM575.425 621.118v0zM640.383 621.118v0zM641.609 621.118v0z" />
<glyph unicode="&#xe98f;" d="M398.937 619.892v0zM470.023 619.892v0zM365.233 619.279v0zM431.416 619.279v0zM469.41 619.279v0z" />
<glyph unicode="&#xe990;" d="M397.712 617.441v0zM468.184 617.441v0zM364.007 616.828v0zM430.19 616.828v0z" />
<glyph unicode="&#xe991;" d="M428.965 614.377v0zM466.346 614.377v0zM395.873 613.764v0zM362.169 613.151v0z" />
<glyph unicode="&#xe992;" d="M359.718 607.636v0zM393.422 607.636v0zM425.901 607.636v0zM462.669 607.636v0z" />
<glyph unicode="&#xe993;" d="M460.831 604.572v0zM358.492 603.959v0zM424.675 603.959v0zM391.583 603.346v0zM460.218 603.346v0zM357.879 602.734v0z" />
<glyph unicode="&#xe994;" d="M458.379 599.057v0zM422.837 598.444v0zM389.745 597.831v0zM457.767 597.831v0zM356.245 596.81v0z" />
<glyph unicode="&#xe995;" d="M353.589 588.026v0zM419.977 587.618v0zM454.294 587.005v0zM386.885 586.392v0z" />
<glyph unicode="&#xe996;" d="M418.138 578.425v0zM384.843 577.609v-1.838h0.613l-0.613 1.838zM451.843 576.587v0z" />
<glyph unicode="&#xe997;" d="M417.321 575.157v-1.838h0.613l-0.613 1.838zM451.026 573.932v-1.838h0.613l-0.613 1.838zM384.23 573.319v-1.838h0.613l-0.613 1.838z" />
<glyph unicode="&#xe998;" d="M416.709 570.868v-3.064h0.613l-0.613 3.064zM450.413 569.642v-2.451h0.613l-0.613 2.451zM383.617 568.417v-3.677h0.613l-0.613 3.677z" />
<glyph unicode="&#xe999;" d="M416.096 564.127v-7.354h0.613l-0.613 7.354zM449.8 563.514v-15.32h0.613l-0.613 15.32zM383.004 558.612v-7.966h0.613l-0.613 7.966z" />
<glyph unicode="&#xe99a;" d="M534.367 556.773v-0.613h144.622l-13.482 0.613h-131.141zM533.755 556.16v-30.64h0.613c0 8.609 2.702 22.742-0.613 30.64zM416.096 552.484v-7.354h0.613l-0.613 7.354zM349.913 548.807v-4.902h0.613l-0.613 4.902z" />
<glyph unicode="&#xe99b;" d="M417.321 535.938v-1.838h0.613l-0.613 1.838zM451.843 535.529v0zM678.377 535.938v-3.677h0.613l-0.613 3.677zM351.138 535.325v-1.838h0.613l-0.613 1.838z" />
<glyph unicode="&#xe99c;" d="M677.764 528.584v-2.451h0.613l-0.613 2.451zM352.568 527.563v0zM453.477 527.971v0z" />
<glyph unicode="&#xe99d;" d="M641.811 525.111v0zM353.181 524.498v0zM608.517 524.907v-3.677h0.613l-0.613 3.677z" />
<glyph unicode="&#xe99e;" d="M386.681 523.682v0zM454.703 523.682v0zM677.151 523.682v-1.838h0.613l-0.613 1.838zM353.794 522.047v0zM419.773 522.456v0z" />
<glyph unicode="&#xe99f;" d="M354.406 519.596v0zM420.385 520.005v0zM455.928 520.005v0zM640.996 520.005v-1.838h0.613l-0.613 1.838zM676.741 519.596v0z" />
<glyph unicode="&#xe9a0;" d="M456.541 518.166v0zM607.904 518.166v-1.838h0.613l-0.613 1.838zM354.815 517.554v0zM420.998 517.554v0z" />
<glyph unicode="&#xe9a1;" d="M676.128 516.532v0zM388.519 516.328v0zM574.404 515.919v0zM640.383 516.328v-1.838h0.613l-0.613 1.838zM421.611 515.715v0z" />
<glyph unicode="&#xe9a2;" d="M457.767 515.102v0zM389.132 514.49v0zM607.496 514.081v0zM422.224 513.877v0zM458.379 513.877v0z" />
<glyph unicode="&#xe9a3;" d="M458.992 512.038v0zM606.883 511.63v0zM356.654 511.425v0zM422.837 511.425v0z" />
<glyph unicode="&#xe9a4;" d="M424.062 508.361v0zM460.831 508.361v0zM572.361 508.361v0zM638.545 508.361v0zM674.087 508.361v0zM357.879 507.749v0z" />
<glyph unicode="&#xe9a5;" d="M605.453 507.136v0zM424.675 506.523v0zM571.749 506.523v0zM637.932 506.523v0zM673.677 506.114v0zM358.492 505.91v0z" />
<glyph unicode="&#xe9a6;" d="M359.105 504.685v0zM425.288 504.685v0zM462.669 504.685v0zM571.136 504.685v0zM637.319 504.685v0z" />
<glyph unicode="&#xe9a7;" d="M392.809 504.072v0zM604.227 504.072v0zM672.862 504.072v0zM425.901 503.459v0zM463.282 503.459v0zM570.523 503.459v0z" />
<glyph unicode="&#xe9a8;" d="M603.615 502.233v0zM672.249 502.233v0zM360.33 501.621v0zM426.513 501.621v0z" />
<glyph unicode="&#xe9a9;" d="M394.035 501.008v0zM603.002 501.008v0zM427.126 500.395v0zM465.12 500.395v0zM569.297 500.395v0z" />
<glyph unicode="&#xe9aa;" d="M670.411 496.718v0zM362.782 496.105v0zM428.965 496.105v0zM467.572 496.105v0zM633.642 496.105v0z" />
<glyph unicode="&#xe9ab;" d="M630.578 490.59v0zM667.959 490.59v0zM432.029 489.977v0zM471.861 489.977v0zM563.782 489.977v0z" />
<glyph unicode="&#xe9ac;" d="M597.487 489.977v0zM629.965 489.977v0zM667.959 489.977v0zM365.846 489.364v0z" />
<glyph unicode="&#xe9ad;" d="M665.508 485.075v0zM435.093 484.462v0zM476.151 484.462v0zM560.105 484.462v0z" />
<glyph unicode="&#xe9ae;" d="M402.614 483.849v0zM476.764 483.849v0zM559.493 483.849v0zM593.197 483.849v0z" />
<glyph unicode="&#xe9af;" d="M493.309 467.916v0zM544.172 467.916v0zM577.877 467.916v0zM610.355 467.916v0z" />
<glyph unicode="&#xe9b0;" d="M495.148 466.691v0zM542.334 466.691v0zM576.651 466.691v0zM608.517 466.691v0zM381.166 466.078v0zM495.761 466.078v0zM541.721 466.078v0z" />
<glyph unicode="&#xe9b1;" d="M496.373 465.465v0zM541.108 465.465v0zM574.813 465.465v0zM607.291 465.465v0zM653.865 465.465v0zM382.391 464.852v0zM416.096 464.852v0z" />
<glyph unicode="&#xe9b2;" d="M448.575 464.852v0zM497.599 464.852v0zM539.883 464.852v0zM574.2 464.852v0z" />
<glyph unicode="&#xe9b3;" d="M535.593 461.788v0zM569.91 461.788v0zM601.776 461.788v0zM385.455 461.175v0z" />
<glyph unicode="&#xe9b4;" d="M504.34 460.563v0zM533.755 460.563v0zM568.072 460.563v0zM599.938 460.563v0zM650.188 460.563v0z" />
<glyph unicode="&#xe9b5;" d="M533.142 459.95v0zM566.846 459.95v0zM599.325 459.95v0zM649.575 459.95v0zM387.294 459.337v0z" />
<glyph unicode="&#xe9b6;" d="M507.404 458.724v0zM530.691 458.724v0zM565.008 458.724v0zM596.874 458.724v0z" />
<glyph unicode="&#xe9b7;" d="M455.928 456.886v0zM510.468 456.886v0zM527.627 456.886v0zM561.331 456.886v0z" />
<glyph unicode="&#xe9b8;" d="M456.541 456.273v0zM511.694 456.273v0zM526.401 456.273v0zM560.105 456.273v0z" />
<glyph unicode="&#xe9b9;" glyph-name="list-numbered" data-tags="list-numbered, options" d="M384 128h640v-128h-640zM384 512h640v-128h-640zM384 896h640v-128h-640zM192 960v-256h-64v192h-64v64zM128 434v-50h128v-64h-192v146l128 60v50h-128v64h192v-146zM256 256v-320h-192v64h128v64h-128v64h128v64h-128v64z" />
<glyph unicode="&#xe9ba;" d="M519.66 453.209v0zM553.977 453.209v0zM585.843 453.209v0zM394.035 452.596v0z" />
<glyph unicode="&#xe9bb;" glyph-name="list2" data-tags="list, todo, bullet, menu, options" d="M384 896h640v-128h-640v128zM384 512h640v-128h-640v128zM384 128h640v-128h-640v128zM0 832c0 70.692 57.308 128 128 128s128-57.308 128-128c0-70.692-57.308-128-128-128s-128 57.308-128 128zM0 448c0 70.692 57.308 128 128 128s128-57.308 128-128c0-70.692-57.308-128-128-128s-128 57.308-128 128zM0 64c0 70.692 57.308 128 128 128s128-57.308 128-128c0-70.692-57.308-128-128-128s-128 57.308-128 128z" />
<glyph unicode="&#xe9bc;" d="M460.831 451.983v0zM550.913 451.983v0zM582.779 451.983v0zM395.26 451.37v0zM428.965 451.37v0z" />
<glyph unicode="&#xe9bd;" d="M567.868 447.49v0zM637.932 447.694v0zM400.163 447.081v0zM433.867 447.081v0zM466.346 447.081v0zM541.721 447.081v-0.613h2.451l-2.451 0.613z" />
<glyph unicode="&#xe9be;" d="M563.169 447.081v-0.613h1.838l-1.838 0.613zM637.319 447.081v0zM400.776 446.468v0zM434.48 446.468v0z" />
<glyph unicode="&#xe9bf;" d="M401.388 445.855v0zM467.572 445.855v0zM636.093 445.855v0zM402.001 445.242v0zM436.318 445.242v0zM635.481 445.242v0z" />
<glyph unicode="&#xe9c0;" d="M470.023 444.017v0zM404.452 443.404v0zM438.77 443.404v0zM470.636 443.404v0z" />
<glyph unicode="&#xe9c1;" d="M471.861 442.791v0zM632.417 442.791v0zM406.291 442.178v0zM439.995 442.178v0zM472.474 442.178v0z" />
<glyph unicode="&#xe9c2;" d="M631.804 442.178v0zM406.904 441.566v0zM441.221 441.566v0zM473.087 441.566v0zM631.191 441.566v0zM407.516 440.953v0z" />
<glyph unicode="&#xe9c3;" d="M474.312 440.953v0zM629.965 440.953v0zM408.742 440.34v0zM442.446 440.34v0z" />
<glyph unicode="&#xe9c4;" d="M474.925 440.34v0zM629.352 440.34v0zM409.355 439.727v0zM443.672 439.727v0zM475.538 439.727v0zM628.74 439.727v0z" />
<glyph unicode="&#xe9c5;" d="M410.58 439.114v0zM444.285 439.114v0zM476.764 439.114v0zM627.514 439.114v0z" />
<glyph unicode="&#xe9c6;" d="M411.193 438.501v0zM445.51 438.501v0zM477.376 438.501v0zM626.901 438.501v0z" />
<glyph unicode="&#xe9c7;" d="M412.419 437.889v0zM446.123 437.889v0zM478.602 437.889v0zM625.676 437.889v0z" />
<glyph unicode="&#xe9c8;" d="M625.063 437.276v0zM414.257 436.663v0zM447.962 436.663v0zM480.44 436.663v0zM623.837 436.663v0z" />
<glyph unicode="&#xe9c9;" d="M624.45 436.663v0zM414.87 436.050v0zM449.187 436.050v0zM481.053 436.050v0z" />
<glyph unicode="&#xe9ca;" d="M623.224 436.050v0zM416.096 435.437v0zM449.8 435.437v0zM482.279 435.437v0zM621.999 435.437v0z" />
<glyph unicode="&#xe9cb;" d="M621.386 434.825v0zM417.934 434.212v0zM452.251 434.212v0zM484.117 434.212v0z" />
<glyph unicode="&#xe9cc;" d="M620.16 434.212v0zM419.16 433.599v0zM452.864 433.599v0zM485.343 433.599v0z" />
<glyph unicode="&#xe9cd;" d="M420.385 432.986v0zM454.090 432.986v0zM486.569 432.986v0zM618.322 432.986v0z" />
<glyph unicode="&#xe9ce;" d="M490.858 430.535v0zM614.032 430.535v0zM425.901 429.922v0zM459.605 429.922v0z" />
<glyph unicode="&#xe9cf;" d="M492.084 429.922v0zM612.807 429.922v0zM427.126 429.309v0zM460.831 429.309v0z" />
<glyph unicode="&#xe9d0;" d="M493.309 429.309v0zM611.581 429.309v0zM428.352 428.697v0zM462.056 428.697v0z" />
<glyph unicode="&#xe9d1;" d="M494.535 428.697v0zM610.355 428.697v0zM429.577 428.084v0zM463.282 428.084v0z" />
<glyph unicode="&#xe9d2;" d="M496.986 427.471v0zM607.904 427.471v0zM432.029 426.858v0zM466.346 426.858v0z" />
<glyph unicode="&#xe9d3;" d="M501.276 425.633v0zM603.615 425.633v0zM436.318 425.020v0zM470.636 425.020v0z" />
<glyph unicode="&#xe9d4;" d="M443.059 422.569v0zM477.376 422.569v0zM509.242 422.569v0zM595.648 422.569v0z" />
<glyph unicode="&#xe9d5;" d="M512.919 421.343v0zM591.971 421.343v0zM448.983 420.526v0zM482.892 420.73v0z" />
<glyph unicode="&#xe9d6;" d="M534.98 416.44v-0.613h2.451l-2.451 0.613zM567.459 416.44v-0.613h2.451l-2.451 0.613zM474.312 415.828v-0.613h4.29l-4.29 0.613zM493.309 415.828v-0.613h4.29l-4.29 0.613z" />
<glyph unicode="&#xe9d7;" d="M19.61 250.37v-0.613h4.29l-4.29 0.613zM79.052 250.37v-0.613h3.677l-3.677 0.613zM138.494 250.37v-0.613h3.677l-3.677 0.613zM783.78 250.37v-0.613h3.677l-3.677 0.613zM16.546 249.757v0z" />
<glyph unicode="&#xe9d8;" d="M39.832 217.891h4.902v1.226h-21.448v-1.226h7.354c0-3.781 0.238-8.42-2.187-11.607-3.728-4.89-11.914-3.334-15.235 1.201-2.836 3.873-2.8 8.91-2.8 13.469 0 9.695-2.012 28.226 12.869 27.239 3.964-0.264 7.197-2.623 9.459-5.791 1.539-2.157 1.933-5.344 4.636-6.128v12.869c-8.107-3.64-16.174 3.352-25.125-1.814-15.691-9.045-16.007-36.174 1.226-43.822 11.518-5.111 26.065 0.962 26.351 14.383z" />
<glyph unicode="&#xe9d9;" d="M365.233 249.757v-0.613h17.771l-17.771 0.613zM396.486 249.757v-0.613c3.983 0 13.591 1.777 15.933-1.838 0.887 3.946-13.12 2.451-15.933 2.451zM455.928 249.757v-0.613h26.963c-7.025 2.948-19.316 0.613-26.963 0.613zM591.971 249.757v0z" />
<glyph unicode="&#xe9da;" d="M772.749 216.053v-13.482c8.077 3.095 16.711-4.394 24.341 3.236 6.41 6.404 5.203 19.757-2.892 24.126-4.774 2.574-13.427 2.157-16.589 6.992-4.964 7.605 6.845 13.457 12.912 9.811 3.855-2.316 4.902-9.388 8.579-10.461v12.869c-7.587-3.046-16.717 4.596-23.446-3.763-1.422-1.765-2.133-3.842-2.531-6.042-0.319-1.716-0.221-3.199 0.116-4.902 2.696-13.61 19.046-7.856 23.569-18.384 3.634-8.463-7.948-15.443-14.867-11.184-3.959 2.439-5.454 10.093-9.192 11.184z" />
<glyph unicode="&#xe9db;" d="M313.144 203.797h-6.128v-1.226h14.707v1.226h-6.741c1.97 8.518 3.205 12.256 12.256 12.256 2.014 0 4.789 0.447 6.435-0.98 2.678-2.329 3.532-8.009 4.595-11.276h-7.354v-1.226h22.061v1.226h-6.128c-1.734 11.741-7.887 23.673-11.643 34.93-0.649 1.943-2.334 10.026-4.902 10.026-2.554 0-4.418-8.659-5.113-10.638-3.851-10.988-10.322-22.809-12.046-34.317zM365.233 249.144v-1.226h6.741v-42.896h-6.741v-1.838h15.933v1.838h-6.741v40.445h0.613c5.396-11.404 14.243-21.975 21.244-32.479 2.379-3.567 4.817-9.676 9.396-10.418v45.348h6.741v1.226h-15.32v-1.226h6.128v-28.189l-13.89 20.223-6.445 8.561-17.659 0.631z" />
<glyph unicode="&#xe9dc;" d="M456.541 249.144v-1.226h6.741v-42.896h-6.741v-1.838h22.061v1.838h-6.741v22.061c1.83 0 3.738 0.123 5.515-0.392 10.898-3.15 4.058-15.124 10.046-21.534 3.51-3.757 9.358-2.543 13.853-1.973v1.226c-9.583 0.086-6.099 8.169-8.435 14.707-1.778 4.976-6.223 7.299-11.175 7.966 2.986 1.465 6.354 1.808 9.19 3.658 6.123 3.995 6.55 13.433-0.611 16.687-9.38 4.259-23.61 1.716-33.704 1.716z" />
<glyph unicode="&#xe9dd;" d="M570.523 203.797v-1.226h14.095v1.226h-6.741c1.030 3.162 2.070 9.027 4.602 11.276 1.624 1.44 4.431 0.98 6.428 0.98 9.051 0 10.286-3.738 12.256-12.256h-6.741v-1.226h21.448v1.226c-6.736 0.025-7.322 5.423-9.192 11.031-3.785 11.343-8.948 22.662-11.643 34.317-4.488-0.741-5.344-7.299-6.708-11.031-2.981-8.15-5.952-16.319-8.822-24.512-1.909-5.448-2.505-9.78-8.982-9.805z" />
<glyph unicode="&#xe9de;" d="M891.634 249.144l-15.933-45.348h-5.515v-1.226h14.095v1.226h-6.741l3.677 12.256h15.933l3.677-12.256h-7.354v-1.226h22.061v1.226c-6.52 0.025-7.158 4.308-8.99 9.805-2.733 8.212-5.73 16.337-8.573 24.512-1.287 3.714-1.851 10.289-6.336 11.031z" />
<glyph unicode="&#xe9df;" d="M927.177 249.144v-0.613h39.22l-12.256 0.613h-26.963zM983.555 249.144v-0.613h37.994v-3.677c2.12 5.239-4.755 4.29-7.966 4.29h-30.028z" />
<glyph unicode="&#xe9e0;" d="M240.22 248.531v-1.226h6.741v-42.896h-6.741v-1.226h15.32v1.226h-6.741v41.058h0.613c2.267-10.951 6.611-21.822 10.016-32.479 1.131-3.542 1.707-9.106 5.917-9.805l13.482 42.896h0.613v-41.671h-7.354v-1.226h22.674v1.226h-7.354v42.896h7.354v1.226h-17.771l-9.805-30.64-6.95 22.061-3.168 7.948-16.846 0.631z" />
<glyph unicode="&#xe9e1;" d="M517.209 248.531v-1.226h6.741v-42.896h-6.741v-1.226h38.607l0.613 14.095h-1.838c-1.769-13.126-11.192-12.869-22.061-12.869v21.448c6.127-0.129 10.119-2.752 10.418-9.192h1.838v18.997h-1.838c-0.327-6.3-4.603-8.457-10.418-8.579v20.223c9.172 0 19.118 0.423 20.835-11.031h1.838v12.256h-37.994z" />
<glyph unicode="&#xe9e2;" d="M629.352 248.531v-1.226h7.354v-42.896h-7.354v-1.226h28.189l9.787 0.98 1.244 13.727c-3.585-1.189-3.242-7.525-6.189-10.289-4.572-4.277-11.355-3.193-17.097-3.193v42.896h6.741v1.226h-22.674z" />
<glyph unicode="&#xe9e3;" d="M712.081 248.531v-1.226h6.741v-42.896h-6.741v-1.226h38.607l0.613 14.095h-1.838c-1.912-12.942-11.38-12.869-22.061-12.869v21.448c6.018-0.123 9.872-2.972 10.418-9.192h1.838v18.997h-1.838c-0.325-6.22-4.657-8.457-10.418-8.579v20.223c5.099 0 11.527 0.993 15.921-2.188 3.046-2.2 3.432-7.875 6.753-8.843l-0.613 12.256h-37.381z" />
<glyph unicode="&#xe9e4;" d="M819.935 248.531l-0.613-14.095h1.838c1.097 8.12 5.834 12.802 14.095 12.869v-42.896h-7.354v-1.226h23.287v1.226h-7.354v42.896c4.688-0.037 9.002-1.311 11.649-5.515 1.587-2.531 1.226-6.281 4.284-7.354l-0.613 14.095h-39.22z" />
<glyph unicode="&#xe9e5;" d="M925.951 234.437h2.451c0.68 8.334 5.901 12.802 14.095 12.869v-42.896h-7.354v-1.226h22.674v1.226h-6.741v42.896c4.357-0.092 8.512-1.115 11.122-4.915 1.826-2.653 1.508-6.863 4.811-7.954l-0.613 14.095h-29.415l-9.787-0.98-1.244-13.114zM983.555 248.531v-1.226h7.354v-42.896h-7.354v-1.226h39.22l0.613 14.095c-3.524-1.238-3.732-7.611-6.765-10.283-4.553-4.002-12.127-2.586-17.747-2.586v21.448c6.355-0.055 10.154-2.702 11.031-9.192h1.838v18.997h-1.838c-0.858-6.226-5.111-8.457-11.031-8.579v20.223c5.197 0 12.054 1.103 16.491-2.237 3.052-2.298 3.346-7.587 6.796-8.794l-0.613 12.256h-37.994z" />
<glyph unicode="&#xe9e6;" d="M990.296 247.306v-42.896h0.613v29.415l-0.613 13.482zM998.875 247.306v-20.223h0.613l-0.613 20.223z" />
<glyph unicode="&#xe9e7;" d="M151.363 246.693v0zM184.455 246.693v-41.671h-6.128v-0.613c1.728 0 4.888-0.564 6.111 0.98 1.648 2.084 0.63 7.519 0.63 10.050 0 8.763 2.761 23.213-0.613 31.253z" />
<glyph unicode="&#xe9e8;" d="M523.337 246.693v-41.671h-6.128v-0.613c1.728 0 4.888-0.564 6.111 0.98 1.648 2.084 0.63 7.519 0.63 10.050 0 8.763 2.761 23.213-0.613 31.253zM532.529 246.693v-18.997h0.613l-0.613 18.997zM545.398 246.693v0z" />
<glyph unicode="&#xe9e9;" d="M275.15 244.242v0zM326.626 244.242v0zM333.367 244.242v0zM484.73 244.242v0zM494.535 244.242v0zM549.688 244.242v0z" />
<glyph unicode="&#xe9ea;" d="M274.537 242.403v0zM326.013 242.403v0zM333.98 242.403v0zM485.343 242.403v0z" />
<glyph unicode="&#xe9eb;" d="M387.907 241.791v0zM495.352 241.38v0zM551.526 241.791v0zM746.399 241.791v0z" />
<glyph unicode="&#xe9ec;" d="M129.915 241.178v0zM156.879 241.178v0zM210.806 241.178v0zM217.546 241.178v0zM250.025 241.178v0z" />
<glyph unicode="&#xe9ed;" d="M273.925 240.565v0zM276.989 240.565v0zM325.4 240.565v0zM334.592 240.565v0z" />
<glyph unicode="&#xe9ee;" d="M485.956 240.565v-4.902h0.613l-0.613 4.902zM552.139 240.565v0zM588.907 240.565v0zM597.487 240.565v0z" />
<glyph unicode="&#xe9ef;" d="M818.71 239.952v-3.064h0.613l-0.613 3.064zM856.091 239.952v0zM887.957 239.952v0z" />
<glyph unicode="&#xe9f0;" d="M389.745 239.339v0zM555.203 239.339v-3.064h0.613l-0.613 3.064zM588.294 239.339v0zM598.099 239.339v0z" />
<glyph unicode="&#xe9f1;" d="M887.344 238.114v0zM897.762 238.114v0zM963.945 238.114v0zM10.622 237.090v0z" />
<glyph unicode="&#xe9f2;" d="M61.281 236.275v0zM120.723 236.275v0zM128.689 236.275v-20.223h0.613l-0.613 20.223z" />
<glyph unicode="&#xe9f3;" d="M542.947 236.275v-0.613h1.838l-1.838 0.613zM587.069 236.275v0zM589.52 236.275v0zM599.325 236.275v0zM737.819 236.275v-0.613h1.838l-1.838 0.613z" />
<glyph unicode="&#xe9f4;" d="M857.317 235.050v0zM886.118 235.050v0zM889.795 235.050v0zM898.987 235.050v0z" />
<glyph unicode="&#xe9f5;" d="M1.226 234.437v0zM10.418 234.437v-11.031h0.613l-0.613 11.031zM101.113 234.437v0zM160.555 234.437v0z" />
<glyph unicode="&#xe9f6;" d="M857.929 234.437v-0.613h1.838l-1.838 0.613zM886.118 234.437v0zM887.957 234.437v0zM925.951 234.437v-0.613h2.451l-2.451 0.613z" />
<glyph unicode="&#xe9f7;" d="M60.055 233.211v0zM119.497 233.211v0zM212.848 232.801v0zM262.281 233.211v0z" />
</font>
</defs>
</svg>
